Вы используете незарегистрированную версию компонента "Вкладки"!

Поиск

(Avant-Garde Jazz, Experimental, Solo Guitar) [CDR] Ken Silverman - Visionaries - 2012, FLAC (tracks+.cue), lossless

(Avant-Garde Jazz, Experimental, Solo Guitar) [CDR] Ken Silverman - Visionaries - 2012, FLAC (tracks+.cue), lossless
Треклист:
Ken Silverman / Visionaries
Жанр: Avant-Garde Jazz, Experimental, Solo Guitar
Носитель: CDR
Страна-производитель диска (релиза): US
Год издания: 2012
Издатель (лейбл): Soundseer Records
Номер по каталогу: S1002
Страна исполнителя (группы): US
Аудиокодек: FLAC (*.flac)
Тип рипа: tracks+.cue
Битрейт аудио: lossless
Продолжительность: 46:45
Источник (релизер): свой фирменный диск
Наличие сканов в содержимом раздачи:
Треклист:
1. For Alfred H. 0:54
2. Pig Snort 2:34
3. Iranian 2:54
4. Sabicus 8:00
5. Por Ernesto Cavour 4:01
6. Visionaries 9:01
T-Bone Walker 3:18
Jimmy Page 1:56
Arsenio Rodriguez 3:46
7. Hamza 11:07
8. For Syd 6:02
9. Blind Lemon 2:20
 
Лог создания рипа
Exact Audio Copy V1.0 beta 3 from 29. August 2011
EAC extraction logfile from 30. September 2014, 20:30
Ken Silverman / Visionaries
Used drive : PIONEER DVD-RW DVR-115D Adapter: 0 ID: 0
Read mode : Secure
Utilize accurate stream : Yes
Defeat audio cache : Yes
Make use of C2 pointers : No
Read offset correction : 48
Overread into Lead-In and Lead-Out : No
Fill up missing offset samples with silence : Yes
Delete leading and trailing silent blocks : No
Null samples used in CRC calculations : Yes
Used interface : Installed external ASPI interface
Gap handling : Appended to previous track
Used output format : User Defined Encoder
Selected bitrate : 768 kBit/s
Quality : High
Add ID3 tag : No
Command line compressor : C:\Program Files\Exact Audio Copy\Flac\flac.exe
Additional command line options : -6 -V -T "ARTIST=%artist%" -T "TITLE=%title%" -T "ALBUM=%albumtitle%" -T "DATE=%year%" -T "TRACKNUMBER=%tracknr%" -T "GENRE=%genre%" -T "COMMENT=%comment%" -T "BAND=%albuminterpret%" -T "COMPOSER=%composer%" %haslyrics%--tag-from-file=LYRICS="%lyricsfile%"%haslyrics% -T "DISCNUMBER=%cdnumber%" -T "TOTALDISCS=%totalcds%" -T "TOTALTRACKS=%numtracks%" %hascover%--picture="%coverfile%"%hascover% %source% -o %dest%
TOC of the extracted CD
Track | Start | Length | Start sector | End sector
---------------------------------------------------------
1 | 0:00.00 | 0:54.27 | 0 | 4076
2 | 0:54.27 | 2:33.45 | 4077 | 15596
3 | 3:27.72 | 2:53.46 | 15597 | 28617
4 | 6:21.43 | 7:59.49 | 28618 | 64591
5 | 14:21.17 | 3:55.38 | 64592 | 82254
6 | 18:16.55 | 9:01.32 | 82255 | 122861
7 | 27:18.12 | 11:07.05 | 122862 | 172891
8 | 38:25.17 | 6:01.51 | 172892 | 200017
9 | 44:26.68 | 2:18.28 | 200018 | 210395
Track 1
Filename D:\zzz\01 - For Alfred H..wav
Pre-gap length 0:00:02.00
Peak level 94.4 %
Extraction speed 3.0 X
Track quality 100.0 %
Test CRC 27B3DB41
Copy CRC 27B3DB41
Track not present in AccurateRip database
Copy OK
Track 2
Filename D:\zzz\02 - Pig Snort.wav
Peak level 94.4 %
Extraction speed 4.3 X
Track quality 100.0 %
Test CRC DD10F9EF
Copy CRC DD10F9EF
Track not present in AccurateRip database
Copy OK
Track 3
Filename D:\zzz\03 - Iranian.wav
Peak level 94.4 %
Extraction speed 3.9 X
Track quality 99.9 %
Test CRC EE705917
Copy CRC EE705917
Track not present in AccurateRip database
Copy OK
Track 4
Filename D:\zzz\04 - Sabicus.wav
Peak level 94.4 %
Extraction speed 5.7 X
Track quality 100.0 %
Test CRC D81A0972
Copy CRC D81A0972
Track not present in AccurateRip database
Copy OK
Track 5
Filename D:\zzz\05 - Por Ernesto Cavour.wav
Peak level 94.4 %
Extraction speed 5.7 X
Track quality 100.0 %
Test CRC 165EE059
Copy CRC 165EE059
Track not present in AccurateRip database
Copy OK
Track 6
Filename D:\zzz\06 - Visionaries.wav
Peak level 94.4 %
Extraction speed 6.7 X
Track quality 100.0 %
Test CRC 67B0904F
Copy CRC 67B0904F
Track not present in AccurateRip database
Copy OK
Track 7
Filename D:\zzz\07 - Hamza.wav
Peak level 94.4 %
Extraction speed 7.4 X
Track quality 100.0 %
Test CRC EFA2416C
Copy CRC EFA2416C
Track not present in AccurateRip database
Copy OK
Track 8
Filename D:\zzz\08 - For Syd.wav
Peak level 94.4 %
Extraction speed 7.5 X
Track quality 100.0 %
Test CRC A376FDDC
Copy CRC A376FDDC
Track not present in AccurateRip database
Copy OK
Track 9
Filename D:\zzz\09 - Blind Lemon.wav
Peak level 94.4 %
Extraction speed 6.8 X
Track quality 100.0 %
Test CRC 17DE104A
Copy CRC 17DE104A
Track not present in AccurateRip database
Copy OK
None of the tracks are present in the AccurateRip database
No errors occurred
End of status report
==== Log checksum 6A8059A3A6A6E00A7C13F8F6EB61B79235E048547C470F9308AD01C457BC3837 ====
 
Содержание индексной карты (.CUE)
REM GENRE "Acoustic Guitarwork"
REM DATE 2012
REM DISCID 760AF509
REM COMMENT "ExactAudioCopy v1.0b3"
PERFORMER "Ken Silverman"
TITLE "Visionaries"
FILE "01 - For Alfred H..wav" WAVE
TRACK 01 AUDIO
TITLE "For Alfred H."
PERFORMER "Ken Silverman"
INDEX 01 00:00:00
FILE "02 - Pig Snort.wav" WAVE
TRACK 02 AUDIO
TITLE "Pig Snort"
PERFORMER "Ken Silverman"
INDEX 01 00:00:00
FILE "03 - Iranian.wav" WAVE
TRACK 03 AUDIO
TITLE "Iranian"
PERFORMER "Ken Silverman"
INDEX 01 00:00:00
FILE "04 - Sabicus.wav" WAVE
TRACK 04 AUDIO
TITLE "Sabicus"
PERFORMER "Ken Silverman"
INDEX 01 00:00:00
FILE "05 - Por Ernesto Cavour.wav" WAVE
TRACK 05 AUDIO
TITLE "Por Ernesto Cavour"
PERFORMER "Ken Silverman"
INDEX 01 00:00:00
FILE "06 - Visionaries.wav" WAVE
TRACK 06 AUDIO
TITLE "Visionaries"
PERFORMER "Ken Silverman"
INDEX 01 00:00:00
FILE "07 - Hamza.wav" WAVE
TRACK 07 AUDIO
TITLE "Hamza"
PERFORMER "Ken Silverman"
INDEX 01 00:00:00
FILE "08 - For Syd.wav" WAVE
TRACK 08 AUDIO
TITLE "For Syd"
PERFORMER "Ken Silverman"
INDEX 01 00:00:00
FILE "09 - Blind Lemon.wav" WAVE
TRACK 09 AUDIO
TITLE "Blind Lemon"
PERFORMER "Ken Silverman"
INDEX 01 00:00:00
 
Лог проверки качества
d:\>d:\aucdtect -d/-m0 d:\zzz\*.wav
auCDtect: CD records authenticity detector, version 0.8.2
Copyright (c) 2004 Oleg Berngardt. All rights reserved.
Copyright (c) 2004 Alexander Djourik. All rights reserved.
------------------------------------------------------------
Processing file: [01. For Alfred H..wav]
------------------------------------------------------------
This track looks like CDDA with probability 99%
------------------------------------------------------------
Processing file: [02. Pig Snort.wav]
------------------------------------------------------------
This track looks like MPEG with probability 100%
------------------------------------------------------------
Processing file: [03. Iranian.wav]
------------------------------------------------------------
This track looks like CDDA with probability 100%
------------------------------------------------------------
Processing file: [04. Sabicus.wav]
------------------------------------------------------------
This track looks like CDDA with probability 100%
------------------------------------------------------------
Processing file: [05. Por Ernesto Cavour.wav]
------------------------------------------------------------
This track looks like CDDA with probability 100%
------------------------------------------------------------
Processing file: [06. Visionaries.wav]
------------------------------------------------------------
This track looks like CDDA with probability 100%
------------------------------------------------------------
Processing file: [07. Hamza.wav]
------------------------------------------------------------
This track looks like CDDA with probability 99%
------------------------------------------------------------
Processing file: [08. For Syd.wav]
------------------------------------------------------------
This track looks like CDDA with probability 100%
------------------------------------------------------------
Processing file: [09. Blind Lemon.wav]
------------------------------------------------------------
This track looks like CDDA with probability 62%
------------------------------------------------------------
Final Conclusion:
------------------------------------------------------------
Could not qualify the source of these tracks.
Доп. информация:
 
Album Info
These pieces are all original compositions, recorded specifically for this CD, with the exception of 9., which is a home recording from some time ago. The compositions were not written with anyone in mind, but as each piece seems to evoke a different feeling and influence, I decided to name them for specific artists who I admire and have influenced me. They are all in very different ways VISIONARIES.
To the greatest director of all time (1)
For the great Robert Fripp (2)
"When we are dead, seek not our tomb in the earth, but find it in the hearts of men." - Rumi (3)
Dedicated to the flamenco master (4)
Ernesto Cavour was a Bolivian charango master, who literally wrote the book on how to play the instrument (5)
Three very different seers of 20th century music (6)
This piece was created by layering oud parts. For the sublime Nubian oudist, Hamza El Din (7)
An exploration in synth sounds dedicated to the original psychedlistician, the man who first bend minds, Syd Barrett (8)
For Blind Lemon Jefferson, one of the great early country bluesmen. Recorded primitively on cassette tape in the pre-digital era (9)
Produced by Ken Silverman and SoundSeer Records
Recorded Spring, Summer and Fall, 2010 at Future Sound NY
Recorded, mixed and mastered by Ivan Evangelista
Artwork by Ken Silverman
Design by www.quae.gd
 
Состав
Ken Silverman: electric and acoustic guitars, oud, charango, synthesizer
По всем вопросам пишите личное сообщение пользователю M0p94ok.
07:58
133
Нет комментариев. Ваш будет первым!