Вы используете незарегистрированную версию компонента "Вкладки"!

Поиск

(Avant-Garde Jazz, Free Jazz) [CD] 1000 (Jan Klare, Bart Maris, Wilbert De Joode, Michael Vatcher) - (Shoe) - 2012, FLAC (tracks+.cue), lossless

(Avant-Garde Jazz, Free Jazz) [CD] 1000 (Jan Klare, Bart Maris, Wilbert De Joode, Michael Vatcher) - (Shoe) - 2012, FLAC (tracks+.cue), lossless
Треклист:
1000 / (Shoe)
Жанр: Avant-Garde Jazz, Free Jazz
Носитель: CD
Страна-производитель диска (релиза): Canada
Год издания: 2012
Издатель (лейбл): Red Toucan Records
Номер по каталогу: RT 9343
Страна исполнителя (группы): International
Аудиокодек: FLAC (*.flac)
Тип рипа: tracks+.cue
Битрейт аудио: lossless
Продолжительность: 51:06
Источник (релизер): свой фирменный диск
Наличие сканов в содержимом раздачи:
Треклист:
1. Sole 2:41
2. Vamp 2:01
3. Outsole 1:11
4. Welt 5:01
5. Insole 4:45
6. Heel 7:40
7. Midsole 5:28
8. Lining 2:58
9. Tongue 4:34
10. Backstay 2:51
11. Quarter 3:12
12. Laces 8:45
 
Лог создания рипа
Exact Audio Copy V1.0 beta 3 from 29. August 2011
EAC extraction logfile from 2. October 2014, 23:19
1000 / (Shoe)
Used drive : PIONEER DVD-RW DVR-115D Adapter: 0 ID: 0
Read mode : Secure
Utilize accurate stream : Yes
Defeat audio cache : Yes
Make use of C2 pointers : No
Read offset correction : 48
Overread into Lead-In and Lead-Out : No
Fill up missing offset samples with silence : Yes
Delete leading and trailing silent blocks : No
Null samples used in CRC calculations : Yes
Used interface : Installed external ASPI interface
Gap handling : Appended to previous track
Used output format : User Defined Encoder
Selected bitrate : 768 kBit/s
Quality : High
Add ID3 tag : No
Command line compressor : C:\Program Files\Exact Audio Copy\Flac\flac.exe
Additional command line options : -6 -V -T "ARTIST=%artist%" -T "TITLE=%title%" -T "ALBUM=%albumtitle%" -T "DATE=%year%" -T "TRACKNUMBER=%tracknr%" -T "GENRE=%genre%" -T "COMMENT=%comment%" -T "BAND=%albuminterpret%" -T "COMPOSER=%composer%" %haslyrics%--tag-from-file=LYRICS="%lyricsfile%"%haslyrics% -T "DISCNUMBER=%cdnumber%" -T "TOTALDISCS=%totalcds%" -T "TOTALTRACKS=%numtracks%" %hascover%--picture="%coverfile%"%hascover% %source% -o %dest%
TOC of the extracted CD
Track | Start | Length | Start sector | End sector
---------------------------------------------------------
1 | 0:00.00 | 2:41.17 | 0 | 12091
2 | 2:41.17 | 2:00.58 | 12092 | 21149
3 | 4:42.00 | 1:10.64 | 21150 | 26463
4 | 5:52.64 | 5:00.73 | 26464 | 49036
5 | 10:53.62 | 4:44.71 | 49037 | 70407
6 | 15:38.58 | 7:39.72 | 70408 | 104904
7 | 23:18.55 | 5:28.08 | 104905 | 129512
8 | 28:46.63 | 2:57.53 | 129513 | 142840
9 | 31:44.41 | 4:33.57 | 142841 | 163372
10 | 36:18.23 | 2:50.43 | 163373 | 176165
11 | 39:08.66 | 3:12.23 | 176166 | 190588
12 | 42:21.14 | 8:44.46 | 190589 | 229934
Track 1
Filename D:\zzz\01 - Sole.wav
Pre-gap length 0:00:02.00
Peak level 95.9 %
Extraction speed 3.9 X
Track quality 100.0 %
Test CRC 7BCBCAF2
Copy CRC 7BCBCAF2
Accurately ripped (confidence 1) [DA151FE4] (AR v2)
Copy OK
Track 2
Filename D:\zzz\02 - Vamp.wav
Pre-gap length 0:00:02.17
Peak level 95.9 %
Extraction speed 3.9 X
Track quality 100.0 %
Test CRC C1FEC193
Copy CRC C1FEC193
Accurately ripped (confidence 1) [777C55E3] (AR v2)
Copy OK
Track 3
Filename D:\zzz\03 - Outsole.wav
Pre-gap length 0:00:01.74
Peak level 83.0 %
Extraction speed 3.5 X
Track quality 100.0 %
Test CRC 7B3AA25F
Copy CRC 7B3AA25F
Accurately ripped (confidence 1) [B7407B39] (AR v2)
Copy OK
Track 4
Filename D:\zzz\04 - Welt.wav
Peak level 95.9 %
Extraction speed 5.0 X
Track quality 100.0 %
Test CRC 0A3C43B0
Copy CRC 0A3C43B0
Accurately ripped (confidence 1) [93F4992E] (AR v2)
Copy OK
Track 5
Filename D:\zzz\05 - Insole.wav
Pre-gap length 0:00:01.53
Peak level 95.9 %
Extraction speed 5.5 X
Track quality 100.0 %
Test CRC 2D78BD4A
Copy CRC 2D78BD4A
Accurately ripped (confidence 1) [1C6DCF3E] (AR v2)
Copy OK
Track 6
Filename D:\zzz\06 - Heel.wav
Pre-gap length 0:00:01.08
Peak level 95.9 %
Extraction speed 6.3 X
Track quality 100.0 %
Test CRC 394E8717
Copy CRC 394E8717
Accurately ripped (confidence 1) [5B553020] (AR v2)
Copy OK
Track 7
Filename D:\zzz\07 - Midsole.wav
Pre-gap length 0:00:03.34
Peak level 95.9 %
Extraction speed 6.5 X
Track quality 100.0 %
Test CRC 7DAC84DD
Copy CRC 7DAC84DD
Accurately ripped (confidence 1) [4B54E2C6] (AR v2)
Copy OK
Track 8
Filename D:\zzz\08 - Lining.wav
Pre-gap length 0:00:01.64
Peak level 95.9 %
Extraction speed 6.3 X
Track quality 100.0 %
Test CRC E764BD24
Copy CRC E764BD24
Accurately ripped (confidence 1) [E120F7EB] (AR v2)
Copy OK
Track 9
Filename D:\zzz\09 - Tongue.wav
Pre-gap length 0:00:01.72
Peak level 95.9 %
Extraction speed 7.0 X
Track quality 100.0 %
Test CRC 38AFFB41
Copy CRC 38AFFB41
Accurately ripped (confidence 1) [D5F003B6] (AR v2)
Copy OK
Track 10
Filename D:\zzz\10 - Backstay.wav
Peak level 95.9 %
Extraction speed 6.7 X
Track quality 100.0 %
Test CRC 419546AD
Copy CRC 419546AD
Accurately ripped (confidence 1) [2B6FF6BE] (AR v2)
Copy OK
Track 11
Filename D:\zzz\11 - Quarter.wav
Pre-gap length 0:00:02.29
Peak level 95.9 %
Extraction speed 7.1 X
Track quality 100.0 %
Test CRC 1D01B968
Copy CRC 1D01B968
Accurately ripped (confidence 1) [9A60DCB8] (AR v2)
Copy OK
Track 12
Filename D:\zzz\12 - Laces.wav
Pre-gap length 0:00:09.40
Peak level 95.9 %
Extraction speed 8.2 X
Track quality 100.0 %
Test CRC 207DA114
Copy CRC 207DA114
Accurately ripped (confidence 1) [4B752A0F] (AR v2)
Copy OK
All tracks accurately ripped
No errors occurred
End of status report
==== Log checksum AB2820C426E706CCEE0B8EA4C7A95C7B65C2B2197AB2090DCFA9E0B42D75AAD0 ====
 
Содержание индексной карты (.CUE)
REM GENRE "Free Jazz"
REM DATE 2012
REM DISCID 8D0BF90C
REM COMMENT "ExactAudioCopy v1.0b3"
PERFORMER "1000"
TITLE "(Shoe)"
FILE "01 - Sole.wav" WAVE
TRACK 01 AUDIO
TITLE "Sole"
PERFORMER "1000"
INDEX 01 00:00:00
TRACK 02 AUDIO
TITLE "Vamp"
PERFORMER "1000"
INDEX 00 02:39:00
FILE "02 - Vamp.wav" WAVE
INDEX 01 00:00:00
TRACK 03 AUDIO
TITLE "Outsole"
PERFORMER "1000"
INDEX 00 01:58:59
FILE "03 - Outsole.wav" WAVE
INDEX 01 00:00:00
FILE "04 - Welt.wav" WAVE
TRACK 04 AUDIO
TITLE "Welt"
PERFORMER "1000"
INDEX 01 00:00:00
TRACK 05 AUDIO
TITLE "Insole"
PERFORMER "1000"
INDEX 00 04:59:20
FILE "05 - Insole.wav" WAVE
INDEX 01 00:00:00
TRACK 06 AUDIO
TITLE "Heel"
PERFORMER "1000"
INDEX 00 04:43:63
FILE "06 - Heel.wav" WAVE
INDEX 01 00:00:00
TRACK 07 AUDIO
TITLE "Midsole"
PERFORMER "1000"
INDEX 00 07:36:38
FILE "07 - Midsole.wav" WAVE
INDEX 01 00:00:00
TRACK 08 AUDIO
TITLE "Lining"
PERFORMER "1000"
INDEX 00 05:26:19
FILE "08 - Lining.wav" WAVE
INDEX 01 00:00:00
TRACK 09 AUDIO
TITLE "Tongue"
PERFORMER "1000"
INDEX 00 02:55:56
FILE "09 - Tongue.wav" WAVE
INDEX 01 00:00:00
FILE "10 - Backstay.wav" WAVE
TRACK 10 AUDIO
TITLE "Backstay"
PERFORMER "1000"
INDEX 01 00:00:00
TRACK 11 AUDIO
TITLE "Quarter"
PERFORMER "1000"
INDEX 00 02:48:14
FILE "11 - Quarter.wav" WAVE
INDEX 01 00:00:00
TRACK 12 AUDIO
TITLE "Laces"
PERFORMER "1000"
INDEX 00 03:02:58
FILE "12 - Laces.wav" WAVE
INDEX 01 00:00:00
 
Лог проверки качества
d:\>d:\aucdtect -d/-m0 d:\zzz\*.wav
auCDtect: CD records authenticity detector, version 0.8.2
Copyright (c) 2004 Oleg Berngardt. All rights reserved.
Copyright (c) 2004 Alexander Djourik. All rights reserved.
------------------------------------------------------------
Processing file: [01. Sole.wav]
------------------------------------------------------------
This track looks like CDDA with probability 100%
------------------------------------------------------------
Processing file: [02. Vamp.wav]
------------------------------------------------------------
This track looks like CDDA with probability 100%
------------------------------------------------------------
Processing file: [03. Outsole.wav]
------------------------------------------------------------
This track looks like CDDA with probability 100%
------------------------------------------------------------
Processing file: [04. Welt.wav]
------------------------------------------------------------
This track looks like CDDA with probability 99%
------------------------------------------------------------
Processing file: [05. Insole.wav]
------------------------------------------------------------
This track looks like CDDA with probability 100%
------------------------------------------------------------
Processing file: [06. Heel.wav]
------------------------------------------------------------
This track looks like CDDA with probability 100%
------------------------------------------------------------
Processing file: [07. Midsole.wav]
------------------------------------------------------------
This track looks like CDDA with probability 100%
------------------------------------------------------------
Processing file: [08. Lining.wav]
------------------------------------------------------------
This track looks like CDDA with probability 100%
------------------------------------------------------------
Processing file: [09. Tongue.wav]
------------------------------------------------------------
This track looks like CDDA with probability 100%
------------------------------------------------------------
Processing file: [10. Backstay.wav]
------------------------------------------------------------
This track looks like CDDA with probability 100%
------------------------------------------------------------
Processing file: [11. Quarter.wav]
------------------------------------------------------------
This track looks like CDDA with probability 99%
------------------------------------------------------------
Processing file: [12. Laces.wav]
------------------------------------------------------------
This track looks like CDDA with probability 100%
------------------------------------------------------------
Final Conclusion:
------------------------------------------------------------
These tracks looks like CDDA with probability 100%
Доп. информация:
 
Album Info & Review
All compositions by Jan Klare, except 1.,3.,4.,and 9. which are improvisations.
Recorded by Michael W. Huon at Studio Odeon 120, Bruxelles, on May 5, 2011
Mixed and mastered by Oliver Siegel and Jan Klare
Chairs photos by Mark Jeanty
Thanks to Michael Jackson
Graphic designer: Marcel Boucher
Wall photos by Pierre Bouchard
Label director: Michel Passaretti
Liner notes: Jan Klare, December 2011
Inspiration can come from unexpected sources. For reed player Jan Klare, it sprung from the words of a musician who churned in him the desire to create music that was as palpable as an object made of leather or wood. Palpability can be physical as well as organic and if Klare was looking for the latter, he has accomplished it splendidly on this recording.
In keeping with his desire and his vision, Klare moulds a tangible portrait of a (Shoe). He could have as well done it with just a single stylistic impulse but he imbibes different approaches for an absorbing experience. He wrote all but four tracks, which are improvisations, that this worthy band brings front and center.
Improvisation is the group's strong point and it ramps interest right from the time it starts building "Sole." A communion of ideas bonded by free invention rises over an electrifying undercurrent as brass unfurls in unruly and trenchant waves over skittering drums and rumbling bass. The band certainly does not waste any time grabbing attention.
A melodic and frisky air is set up on "Vamp" by Klare (on saxophone) and Bart Maris before the trumpeter shifts into bop mode as Wilber de Joode sets up a walking bass line and drummer Michael Vatcher adds a host of colors and consonances. Klare frees the boundaries in a burst of robust ideas before he and Maris come together for a smooth coda.
The creativity of the band continues to be a hallmark as its members play off each other and go out on individual excursions that are shaped by nuggets of surprise. This is not unexpected given the pedigree of the musicians who have long made vital contributions to the cause of jazz and improvised music.
By the time the group wraps things up on "Laces"—a relaxed tune that nonetheless has eddying pools of brass that jut out into the open and then scamper back, with some deep-hued bowing and textured accents on the drums—it has made that palpable impact. - Jerry D'Souza, All About Jazz
 
Состав
Jan Klare: reeds
Bart Maris: trumpet
Wilbert de Joode: double bass
Michael Vatcher: drums, musical saw
По всем вопросам пишите личное сообщение пользователю M0p94ok.
07:58
124
Нет комментариев. Ваш будет первым!