Вы используете незарегистрированную версию компонента "Вкладки"!

Поиск

(Avant-Garde Jazz, Free Jazz) [CD] John Tchicai's Five Points (Alex Weiss, Garrison Fewell, Dmitry Ishchenko, Ches Smith) - One Long Minute - 2008, FLAC (tracks+.cue), lossless

Треклист:
John Tchicai's Five Points
One Long Minute Жанр: Avant-Garde Jazz, Free Jazz
Носитель: CD
Страна-производитель диска (релиза): Italy
Год издания: 2008
Издатель (лейбл): Nu Bop Records
Номер по каталогу: CD 07
Аудиокодек: FLAC (*.flac)
Тип рипа: tracks+.cue
Битрейт аудио: lossless
Продолжительность: 00:39:31
Источник (релизер): soulseek
Наличие сканов в содержимом раздачи: да
Треклист:
1. Venus
2. Anxiety Disorder
3. Yojimbo
4. Glass Houses And Gift Horses
5. One Long Minute
6. Spectronomous
7. Parole Ambulante
 
Состав
John Tchicai - tenor sax, bass clarinet
Alex Weiss - tenor and alto sax, percussion
Garrison Fewell - guitar, percussion, bow
Dmitry Ishenko - bass
Ches Smith - drums

 
EAC log
Exact Audio Copy V0.99 prebeta 5 from 4. May 2009
EAC extraction logfile from 14. August 2011, 16:00
John Tchicai's Five Points / One Long Minute
Used drive : PLEXTOR CD-R PX-230A Adapter: 0 ID: 1
Read mode : Secure
Utilize accurate stream : Yes
Defeat audio cache : Yes
Make use of C2 pointers : No
Combined read/write offset correction : 0
Overread into Lead-In and Lead-Out : No
Fill up missing offset samples with silence : Yes
Delete leading and trailing silent blocks : No
Null samples used in CRC calculations : Yes
Used interface : Installed external ASPI interface
Gap handling : Not detected, thus appended to previous track
Used output format : User Defined Encoder
Selected bitrate : 1024 kBit/s
Quality : High
Add ID3 tag : No
Command line compressor : C:\Programme\Exact Audio Copy\FLAC\FLAC.EXE
Additional command line options : -8 -V -T "ARTIST=%a" -T "TITLE=%t" -T "ALBUM=%g" -T "DATE=%y" -T "TRACKNUMBER=%n" -T "GENRE=%m" -T "COMMENT=%e" %s -o %d
TOC of the extracted CD
Track | Start | Length | Start sector | End sector
---------------------------------------------------------
1 | 0:00.00 | 9:47.53 | 0 | 44077
2 | 9:47.53 | 7:02.13 | 44078 | 75740
3 | 16:49.66 | 1:35.54 | 75741 | 82919
4 | 18:25.45 | 7:05.51 | 82920 | 114845
5 | 25:31.21 | 5:37.43 | 114846 | 140163
6 | 31:08.64 | 3:13.58 | 140164 | 154696
7 | 34:22.47 | 5:08.46 | 154697 | 177842
Track 1
Filename E:\music\John Tchicai's Five Points - One Long Minute\01 Venus.wav
Peak level 100.0 %
Track quality 100.0 %
Copy CRC C8526750
Copy OK
Track 2
Filename E:\music\John Tchicai's Five Points - One Long Minute\02 Anxiety Disorder.wav
Peak level 98.8 %
Track quality 99.9 %
Copy CRC 8A1BCD27
Copy OK
Track 3
Filename E:\music\John Tchicai's Five Points - One Long Minute\03 Yojimbo.wav
Peak level 99.1 %
Track quality 100.0 %
Copy CRC 5D6BFBB1
Copy OK
Track 4
Filename E:\music\John Tchicai's Five Points - One Long Minute\04 Glass Houses and Gift Horses.wav
Peak level 100.0 %
Track quality 100.0 %
Copy CRC C93DAE89
Copy OK
Track 5
Filename E:\music\John Tchicai's Five Points - One Long Minute\05 One Long Minute.wav
Peak level 99.0 %
Track quality 100.0 %
Copy CRC 69A3C9DB
Copy OK
Track 6
Filename E:\music\John Tchicai's Five Points - One Long Minute\06 Spectronomous.wav
Peak level 100.0 %
Track quality 100.0 %
Copy CRC 43ED3673
Copy OK
Track 7
Filename E:\music\John Tchicai's Five Points - One Long Minute\07 Parole Ambulante.wav
Peak level 98.8 %
Track quality 100.0 %
Copy CRC 0BD3E79C
Copy OK
No errors occurred
End of status report
 
.cue
REM GENRE Jazz
REM DATE 2008
REM DISCID 4C094307
REM COMMENT "ExactAudioCopy v0.99pb5"
PERFORMER "John Tchicai's Five Points"
TITLE "One Long Minute"
FILE "01 Venus.wav" WAVE
TRACK 01 AUDIO
TITLE "Venus"
PERFORMER "John Tchicai's Five Points"
INDEX 01 00:00:00
TRACK 02 AUDIO
TITLE "Anxiety Disorder"
PERFORMER "John Tchicai's Five Points"
INDEX 00 09:47:18
FILE "02 Anxiety Disorder.wav" WAVE
INDEX 01 00:00:00
TRACK 03 AUDIO
TITLE "Yojimbo"
PERFORMER "John Tchicai's Five Points"
INDEX 00 06:59:49
FILE "03 Yojimbo.wav" WAVE
INDEX 01 00:00:00
FILE "04 Glass Houses and Gift Horses.wav" WAVE
TRACK 04 AUDIO
TITLE "Glass Houses and Gift Horses"
PERFORMER "John Tchicai's Five Points"
INDEX 01 00:00:00
TRACK 05 AUDIO
TITLE "One Long Minute"
PERFORMER "John Tchicai's Five Points"
INDEX 00 07:04:48
FILE "05 One Long Minute.wav" WAVE
INDEX 01 00:00:00
TRACK 06 AUDIO
TITLE "Spectronomous"
PERFORMER "John Tchicai's Five Points"
INDEX 00 05:36:45
FILE "06 Spectronomous.wav" WAVE
INDEX 01 00:00:00
TRACK 07 AUDIO
TITLE "Parole Ambulante"
PERFORMER "John Tchicai's Five Points"
INDEX 00 03:10:43
FILE "07 Parole Ambulante.wav" WAVE
INDEX 01 00:00:00
 
auCDtect
-----------------------
DON'T MODIFY THIS FILE
-----------------------
PERFORMER: auCDtect Task Manager, ver. 1.6.0 RC1 build 1.6.0.1
Copyright (c) 2008-2010 y-soft. All rights reserved
http://y-soft.org
ANALYZER: auCDtect: CD records authenticity detector, version 0.8.2
Copyright (c) 2004 Oleg Berngardt. All rights reserved.
Copyright (c) 2004 Alexander Djourik. All rights reserved.
FILE: 07 Parole Ambulante.flac
Size: 25900060 Hash: 6985DEEEBDD67623627EB171D6C0A895 Accuracy: -m0
Conclusion: CDDA 100%
Signature: 73C9C61505B95F184E44732088EC2DD7F69ED24D
FILE: 06 Spectronomous.flac
Size: 17958412 Hash: D4DC074D0FC5BA6BC920827D721D9B79 Accuracy: -m0
Conclusion: CDDA 100%
Signature: 95CDD570CB7D5FBE5EB24E60AB3A6DAA14570D33
FILE: 05 One Long Minute.flac
Size: 28206095 Hash: BBFA3763BFD9DD3B44278B6658247B76 Accuracy: -m0
Conclusion: CDDA 100%
Signature: 349A1FBA63ACAC0DD9ACA3557491C2AD24ED9B87
FILE: 04 Glass Houses and Gift Horses.flac
Size: 40922051 Hash: 1BD0381F6F110E8956AC1270C91E9545 Accuracy: -m0
Conclusion: CDDA 100%
Signature: 3897C2F09BACFBE7321325C0131F2AFE7E43BE86
FILE: 03 Yojimbo.flac
Size: 8612423 Hash: 39A363BF44622C9641E9DB536C75D120 Accuracy: -m0
Conclusion: CDDA 100%
Signature: 443C23B6C4FAD11B85380502BB243DAFDD6D0A94
FILE: 02 Anxiety Disorder.flac
Size: 41713340 Hash: F5A5AB65235DDEB2E9F9E7DE7C3E9DC4 Accuracy: -m0
Conclusion: CDDA 100%
Signature: B444276CBF0F109E20B1E2640E87B5CF58DDCD80
FILE: 01 Venus.flac
Size: 50362928 Hash: BA68D8A45C8267A11409DF5C99FDC5F7 Accuracy: -m0
Conclusion: CDDA 100%
Signature: F21634ECCED662B7EB68DEE12D9C362BB303DC15
По всем вопросам пишите личное сообщение пользователю M0p94ok.
07:56
172
Нет комментариев. Ваш будет первым!