Вы используете незарегистрированную версию компонента "Вкладки"!

Поиск

(Free Improvisation) [CD] Ab Baars, Ig Henneman, Misha Mengelberg - Sliptong - 2008, FLAC (tracks+.cue), lossless

(Free Improvisation) [CD] Ab Baars, Ig Henneman, Misha Mengelberg - Sliptong - 2008, FLAC (tracks+.cue), lossless
Треклист:
Baars, Henneman, Mengelberg / Sliptong
Жанр: Free Improvisation
Носитель: CD
Страна-производитель диска (релиза): Netherlands
Год издания: 2008
Издатель (лейбл): Wig
Номер по каталогу: 16
Аудиокодек: FLAC (*.flac)
Тип рипа: tracks+.cue
Битрейт аудио: lossless
Продолжительность: 43:15
Источник (релизер): cd
Наличие сканов в содержимом раздачи: нет
Треклист:
1 Leng 5:55
2 Sliptong 6:03
3 Mizuiro 3:24
4 Fishwalk 5:10
5 Zeeengel 8:39
6 Is That Solly? 8:53
7 Misha Started Whistling 1:28
8 Oystercatchers 3:03
 
Лог создания рипа
Exact Audio Copy V1.0 beta 3 from 29. August 2011
EAC extraction logfile from 30. December 2014, 17:30
Baars, Henneman, Mengelberg / Sliptong
Used drive : ASUS DRW-24F1ST a Adapter: 0 ID: 0
Read mode : Secure
Utilize accurate stream : Yes
Defeat audio cache : Yes
Make use of C2 pointers : No
Read offset correction : 6
Overread into Lead-In and Lead-Out : No
Fill up missing offset samples with silence : Yes
Delete leading and trailing silent blocks : No
Null samples used in CRC calculations : Yes
Used interface : Native Win32 interface for Win NT & 2000
Gap handling : Appended to previous track
Used output format : User Defined Encoder
Selected bitrate : 320 kBit/s
Quality : High
Add ID3 tag : No
Command line compressor : D:\Programs\Exact Audio Copy\Flac\flac.exe
Additional command line options : -V -8 -T "Genre=%genre%" -T "Artist=%artist%" -T "Title=%title%" -T "Album=%albumtitle%" -T "Date=%year%" -T "Tracknumber=%tracknr%" -T "Comment=%comment%" %source%
TOC of the extracted CD
Track | Start | Length | Start sector | End sector
---------------------------------------------------------
1 | 0:00.00 | 6:01.14 | 0 | 27088
2 | 6:01.14 | 6:07.32 | 27089 | 54645
3 | 12:08.46 | 3:30.12 | 54646 | 70407
4 | 15:38.58 | 5:14.60 | 70408 | 94017
5 | 20:53.43 | 8:43.61 | 94018 | 133303
6 | 29:37.29 | 8:57.67 | 133304 | 173645
7 | 38:35.21 | 1:36.36 | 173646 | 180881
8 | 40:11.57 | 3:03.66 | 180882 | 194672
Track 1
Filename D:\EAC\01 Leng.wav
Pre-gap length 0:00:02.00
Peak level 97.7 %
Extraction speed 4.5 X
Track quality 99.9 %
Test CRC 0C50B8B7
Copy CRC 0C50B8B7
Copy OK
Track 2
Filename D:\EAC\02 Sliptong.wav
Pre-gap length 0:00:04.01
Peak level 97.7 %
Extraction speed 5.6 X
Track quality 100.0 %
Test CRC 650401EC
Copy CRC 650401EC
Copy OK
Track 3
Filename D:\EAC\03 Mizu-Iro.wav
Pre-gap length 0:00:02.74
Peak level 54.3 %
Extraction speed 4.9 X
Track quality 99.9 %
Test CRC 2E389046
Copy CRC 2E389046
Copy OK
Track 4
Filename D:\EAC\04 Fishwalk.wav
Pre-gap length 0:00:04.74
Peak level 97.7 %
Extraction speed 6.4 X
Track quality 100.0 %
Test CRC DB653CD8
Copy CRC DB653CD8
Copy OK
Track 5
Filename D:\EAC\05 Zee-engel.wav
Pre-gap length 0:00:04.42
Peak level 71.2 %
Extraction speed 7.3 X
Track quality 100.0 %
Test CRC D55F8012
Copy CRC D55F8012
Copy OK
Track 6
Filename D:\EAC\06 Is That Solly.wav
Pre-gap length 0:00:03.62
Peak level 97.7 %
Extraction speed 7.9 X
Track quality 100.0 %
Test CRC 8E0D0EF3
Copy CRC 8E0D0EF3
Copy OK
Track 7
Filename D:\EAC\07 Misha started whistling.wav
Pre-gap length 0:00:03.74
Peak level 97.7 %
Extraction speed 6.3 X
Track quality 100.0 %
Test CRC 6A244AA7
Copy CRC 6A244AA7
Copy OK
Track 8
Filename D:\EAC\08 Oystercatchers.wav
Pre-gap length 0:00:09.30
Peak level 97.7 %
Extraction speed 7.4 X
Track quality 100.0 %
Test CRC 1BB364D8
Copy CRC 1BB364D8
Copy OK
No errors occurred
End of status report
==== Log checksum F123F6462C40EE5CBC5492E93EE3866F5FA08F8F9DC56CE7354034FE4E510B5B ====
 
Содержание индексной карты (.CUE)
REM GENRE Jazz
REM DATE 2008
REM DISCID 610A2308
REM COMMENT "ExactAudioCopy v1.0b3"
PERFORMER "Baars, Henneman, Mengelberg"
TITLE "Sliptong"
FILE "01 Leng.wav" WAVE
TRACK 01 AUDIO
TITLE "Leng"
PERFORMER "Baars, Henneman, Mengelberg"
ISRC NLE690900101
INDEX 01 00:00:00
TRACK 02 AUDIO
TITLE "Sliptong"
PERFORMER "Baars, Henneman, Mengelberg"
ISRC NLE690900102
INDEX 00 05:57:13
FILE "02 Sliptong.wav" WAVE
INDEX 01 00:00:00
TRACK 03 AUDIO
TITLE "Mizu-Iro"
PERFORMER "Baars, Henneman, Mengelberg"
ISRC NLE690900103
INDEX 00 06:04:33
FILE "03 Mizu-Iro.wav" WAVE
INDEX 01 00:00:00
TRACK 04 AUDIO
TITLE "Fishwalk"
PERFORMER "Baars, Henneman, Mengelberg"
ISRC NLE690900104
INDEX 00 03:25:13
FILE "04 Fishwalk.wav" WAVE
INDEX 01 00:00:00
TRACK 05 AUDIO
TITLE "Zee-engel"
PERFORMER "Baars, Henneman, Mengelberg"
ISRC NLE690900105
INDEX 00 05:10:18
FILE "05 Zee-engel.wav" WAVE
INDEX 01 00:00:00
TRACK 06 AUDIO
TITLE "Is That Solly ?"
PERFORMER "Baars, Henneman, Mengelberg"
ISRC NLE690900106
INDEX 00 08:39:74
FILE "06 Is That Solly.wav" WAVE
INDEX 01 00:00:00
TRACK 07 AUDIO
TITLE "Misha started whistling"
PERFORMER "Baars, Henneman, Mengelberg"
ISRC NLE690900107
INDEX 00 08:53:68
FILE "07 Misha started whistling.wav" WAVE
INDEX 01 00:00:00
TRACK 08 AUDIO
TITLE "Oystercatchers"
PERFORMER "Baars, Henneman, Mengelberg"
ISRC NLE690900108
INDEX 00 01:27:06
FILE "08 Oystercatchers.wav" WAVE
INDEX 01 00:00:00
Доп. информация: Recorded on 8 December 2008 at the Bimhuis, Amsterdam
 
Состав
Clarinet, Tenor Saxophone, Shakuhachi – Ab Baars
Composed By – Ab Baars, Ig Henneman, Misha Mengelberg
Piano – Misha Mengelberg
Viola, Producer – Ig Henneman
По всем вопросам пишите личное сообщение пользователю M0p94ok.
07:54
150
Нет комментариев. Ваш будет первым!