Вы используете незарегистрированную версию компонента "Вкладки"!

Поиск

(Avant Garde, Modern Creative, Free Funk) [CD] Jeff Coffin - Commonality (with Tom Giampietro, Chris Enghauser, Rod McGaha) - 1999, FLAC (tracks+.cue), lossless

(Avant Garde, Modern Creative, Free Funk) [CD] Jeff Coffin - Commonality (with Tom Giampietro, Chris Enghauser, Rod McGaha) - 1999, FLAC (tracks+.cue), lossless
Треклист:
Jeff Coffin / Commonality
(with Tom Giampietro, Chris Enghauser, Rod McGaha)
Жанр: Avant Garde, Modern Creative, Free Funk
Носитель: CD
Страна-производитель диска (релиза): USA
Год издания: 1999
Издатель (лейбл): Compass Records
Номер по каталогу: 7 4278 2
Страна исполнителя (группы): USA
Аудиокодек: FLAC (*.flac)
Тип рипа: tracks+.cue
Битрейт аудио: lossless
Продолжительность: 01:07:45
Источник (релизер): voopa @ what.cd
Наличие сканов в содержимом раздачи: front+back, from discogs.com
Треклист:
1. "First Comes Last" 5:17
2. "Salt Lick" 4:51
3. "Commonality" 9:47
4. "Espoo You" 7:38
5. "Angle Of Repose" 10:39
6. "Something Quick" 10:42
7. "Outside, The Gray Sky Cries" 6:18
8. "Who's Who" 7:47
9. "Prayer" 4:45
 
Лог создания рипа
Exact Audio Copy V1.0 beta 1 from 15. November 2010
EAC extraction logfile from 27. March 2011, 15:49
Jeff Coffin / Commonality
Used drive : TSSTcorpDVD+-RW TS-H653F Adapter: 0 ID: 1
Read mode : Secure
Utilize accurate stream : Yes
Defeat audio cache : Yes
Make use of C2 pointers : No
Read offset correction : 6
Overread into Lead-In and Lead-Out : No
Fill up missing offset samples with silence : Yes
Delete leading and trailing silent blocks : No
Null samples used in CRC calculations : Yes
Used interface : Native Win32 interface for Win NT & 2000
Gap handling : Appended to previous track
Used output format : User Defined Encoder
Selected bitrate : 768 kBit/s
Quality : High
Add ID3 tag : No
Command line compressor : C:\Program Files\Exact Audio Copy\FLAC\FLAC.EXE
Additional command line options : -V -8 -T "artist=%a" -T "title=%t" -T "album=%g" -T "date=%y" -T "tracknumber=%n" -T "genre=%m" %s
TOC of the extracted CD
Track | Start | Length | Start sector | End sector
---------------------------------------------------------
1 | 0:00.00 | 5:17.05 | 0 | 23779
2 | 5:17.05 | 4:51.22 | 23780 | 45626
3 | 10:08.27 | 9:47.38 | 45627 | 89689
4 | 19:55.65 | 7:38.02 | 89690 | 124041
5 | 27:33.67 | 10:38.60 | 124042 | 171951
6 | 38:12.52 | 10:42.28 | 171952 | 220129
7 | 48:55.05 | 6:17.60 | 220130 | 248464
8 | 55:12.65 | 7:47.02 | 248465 | 283491
9 | 62:59.67 | 4:45.43 | 283492 | 304909
Track 1
Filename K:\EAC rips\Jeff Coffin - Commonality - 1999 [FLAC]\01 - First Comes Last.wav
Pre-gap length 0:00:02.00
Peak level 99.9 %
Extraction speed 4.9 X
Track quality 100.0 %
Test CRC 5A5C6BB2
Copy CRC 5A5C6BB2
Track not present in AccurateRip database
Copy OK
Track 2
Filename K:\EAC rips\Jeff Coffin - Commonality - 1999 [FLAC]\02 - Salt Lick.wav
Peak level 99.9 %
Extraction speed 5.4 X
Track quality 100.0 %
Test CRC A25ED324
Copy CRC A25ED324
Accurately ripped (confidence 2) [68AE7907]
Copy OK
Track 3
Filename K:\EAC rips\Jeff Coffin - Commonality - 1999 [FLAC]\03 - Commonality.wav
Peak level 99.9 %
Extraction speed 6.6 X
Track quality 100.0 %
Test CRC 5F4F7F99
Copy CRC 5F4F7F99
Accurately ripped (confidence 2) [35B8E720]
Copy OK
Track 4
Filename K:\EAC rips\Jeff Coffin - Commonality - 1999 [FLAC]\04 - Espoo You.wav
Pre-gap length 0:00:01.40
Peak level 99.9 %
Extraction speed 7.3 X
Track quality 100.0 %
Test CRC 33F057BF
Copy CRC 33F057BF
Accurately ripped (confidence 2) [2F433A62]
Copy OK
Track 5
Filename K:\EAC rips\Jeff Coffin - Commonality - 1999 [FLAC]\05 - Angle Of Repose.wav
Pre-gap length 0:00:01.76
Peak level 99.9 %
Extraction speed 8.2 X
Track quality 100.0 %
Test CRC E7CF0C3F
Copy CRC E7CF0C3F
Accurately ripped (confidence 2) [FE4B3BFA]
Copy OK
Track 6
Filename K:\EAC rips\Jeff Coffin - Commonality - 1999 [FLAC]\06 - Something Quick.wav
Peak level 99.9 %
Extraction speed 9.0 X
Track quality 100.0 %
Test CRC EDFE45A6
Copy CRC EDFE45A6
Accurately ripped (confidence 2) [B31F8AEA]
Copy OK
Track 7
Filename K:\EAC rips\Jeff Coffin - Commonality - 1999 [FLAC]\07 - Outside, The Gray Sky Cries.wav
Peak level 99.8 %
Extraction speed 9.2 X
Track quality 100.0 %
Test CRC CBFA7246
Copy CRC CBFA7246
Accurately ripped (confidence 2) [5601AB9A]
Copy OK
Track 8
Filename K:\EAC rips\Jeff Coffin - Commonality - 1999 [FLAC]\08 - Who's Who.wav
Pre-gap length 0:00:01.64
Peak level 99.9 %
Extraction speed 9.8 X
Track quality 100.0 %
Test CRC 06449151
Copy CRC 06449151
Accurately ripped (confidence 2) [761AEFA1]
Copy OK
Track 9
Filename K:\EAC rips\Jeff Coffin - Commonality - 1999 [FLAC]\09 - Prayer.wav
Peak level 99.9 %
Extraction speed 7.9 X
Track quality 99.9 %
Test CRC 5796FFD5
Copy CRC 5796FFD5
Accurately ripped (confidence 2) [9E333C45]
Copy OK
8 track(s) accurately ripped
1 track(s) not present in the AccurateRip database
Some tracks could not be verified as accurate
No errors occurred
End of status report
 
Содержание индексной карты (.CUE)
REM GENRE Jazz
REM DATE 1999
REM DISCID 7D0FE109
REM COMMENT "ExactAudioCopy v1.0b1"
FILE "Jeff Coffin - Commonality - 1999 [FLAC]\01 - First Comes Last.wav" WAVE
TRACK 01 AUDIO
INDEX 01 00:00:00
FILE "Jeff Coffin - Commonality - 1999 [FLAC]\02 - Salt Lick.wav" WAVE
TRACK 02 AUDIO
INDEX 01 00:00:00
FILE "Jeff Coffin - Commonality - 1999 [FLAC]\03 - Commonality.wav" WAVE
TRACK 03 AUDIO
INDEX 01 00:00:00
TRACK 04 AUDIO
INDEX 00 09:46:08
FILE "Jeff Coffin - Commonality - 1999 [FLAC]\04 - Espoo You.wav" WAVE
INDEX 01 00:00:00
TRACK 05 AUDIO
INDEX 00 07:36:20
FILE "Jeff Coffin - Commonality - 1999 [FLAC]\05 - Angle Of Repose.wav" WAVE
INDEX 01 00:00:00
FILE "Jeff Coffin - Commonality - 1999 [FLAC]\06 - Something Quick.wav" WAVE
TRACK 06 AUDIO
INDEX 01 00:00:00
FILE "Jeff Coffin - Commonality - 1999 [FLAC]\07 - Outside, The Gray Sky Cries.wav" WAVE
TRACK 07 AUDIO
INDEX 01 00:00:00
TRACK 08 AUDIO
INDEX 00 06:16:12
FILE "Jeff Coffin - Commonality - 1999 [FLAC]\08 - Who's Who.wav" WAVE
INDEX 01 00:00:00
FILE "Jeff Coffin - Commonality - 1999 [FLAC]\09 - Prayer.wav" WAVE
TRACK 09 AUDIO
INDEX 01 00:00:00
Доп. информация:
Recording Date:
July 23, 1998 & September 27, 1998
Release Date:
August 17, 1999
http://www.discogs.com/Jeff-Coffin-Commonality/release/7543669
 
Об исполнителе (группе)
Artist Biography by Heather Phares
Saxophonist/composer Jeff Coffin is perhaps best known for his work with Béla Fleck & the Flecktones, but he has also maintained a thriving solo and collaborative career since 1991, when he left his native Texas for Nashville, Tennessee after graduating college. Coffin has provided support for a wide array of artists, including the Dave Matthews Band, Van Morrison, Branford Marsalis, Medeski, Martin & Wood, and the Mavericks; closer to home, he plays with the Vibration Arts Ensemble and established a local bi-monthly jazz workshop and jam session. He released his solo debut Outside The Lines in 1997, and followed it two years later with Commonality. The 21st century saw Coffin leading his group the Mu'tet on three albums, Go-Round in 2001, Bloom in 2005, and Mutopia in 2008.
http://www.allmusic.com/artist/jeff-coffin-mn0000810928/biography
 
Об альбоме (сборнике)
AllMusic Review by Michael G. Nastos
If you are searching for the next upcoming original saxophonist in modern jazz, Coffin may be your man. He plays alto and tenor in a manner very reminiscent of a young Sonny Rollins; savvy, brawny, unabashed, and fearless. Four of the nine cuts are with sax-bass-drums, again evoking favorable comparison to the legendary hard bop-edged Rollins-Wilbur Ware-Elvin Jones triad. Trumpeter Rod McGaha is on the other five, and he adds a lot -- his saucy Don Cherry-like smeared solos and pungent harmonic lines run in tandem with Coffin, making a formidable team and an arresting sound. The trio takes on some stiff challenges: a moderate New Orleans shuffle ("First Comes Last"), a fanfare intro to head noddin' bluesy swing to free boppin' title track, and a sweet and sour blues ("Espoo You"). The finale is a hymnal reverent "Prayer" with jingle bell threads woven throughout. But "Angle of Response" is a lengthy barnburner, a modal bassline in five and four beats alternately providing the foundation for Coffin to play alto and tenor simultaneously. The following piece, "Something Quick" (another workout at over ten minutes), has the band chewing up everything in its path, a tour de force hard bop epic. Seamless free sections are included here and there, and the ensemble, with bassist Chris Enghauser and drummer Tom Giampietro, keep the music percolating no matter the tempo. Coffin has a tiger by the tail on this extraordinary, highly recommended disc.
http://www.allmusic.com/album/commonality-mw0000243922
 
Состав
Jeff Coffin - alto & tenor saxophones;
Tom Giampietro - drums;
Chris Enghauser - acoustic bass;
Rod McGaha - trumpet (2, 6-8)
По всем вопросам пишите личное сообщение пользователю M0p94ok.
16:25
202
Нет комментариев. Ваш будет первым!