Вы используете незарегистрированную версию компонента "Вкладки"!

Поиск

(jazz, post-bop) [cd] Akira Tana - Moon Over the World (2004), FLAC (tracks+.cue), lossless

(jazz, post-bop) [cd] Akira Tana - Moon Over the World (2004), FLAC (tracks+.cue), lossless
Треклист:
(jazz, post-bop) [cd] Akira Tana - Moon Over the World (2004), FLAC (tracks+.cue), lossless


Akira Tana - Moon Over the World (2004)

Жанр: jazz, post-bop
Год выпуска: 2004
Издатель (лейбл):Sons of Sound / SSPCD018
Формат: FLAC (tracks+.cue)
Битрейт аудио: lossless
Продолжительность 1`04`37
Источник: what.cd

tracks

1. Jewel's Eyes (3:50)
2. Moon Over The World (6:13)
3. Koi-No Vacance (Vacation Of Love) (5:24)
4. Sweet Stuff (6:14)
5. Skyline (6:18)
6. No Place Is The End Of The World (7:06)
7. Sofflee (6:30)
8. Condor Man (5:14)
9. Three Views Of A Secret (6:49)
10. Chinese Fingers (5:14)
11. Reflections Of Love (5:45)


 
.log
Exact Audio Copy V1.0 beta 3 from 29. August 2011
EAC extraction logfile from 25. July 2015, 22:46
Akira Tana / Moon Over the World
Used drive : ATAPI iHAS324 W Adapter: 0 ID: 0
Read mode : Secure
Utilize accurate stream : Yes
Defeat audio cache : Yes
Make use of C2 pointers : No
Read offset correction : 48
Overread into Lead-In and Lead-Out : No
Fill up missing offset samples with silence : Yes
Delete leading and trailing silent blocks : No
Null samples used in CRC calculations : Yes
Used interface : Native Win32 interface for Win NT & 2000
Gap handling : Appended to previous track
Used output format : User Defined Encoder
Selected bitrate : 1024 kBit/s
Quality : High
Add ID3 tag : No
Command line compressor : C:\Program Files (x86)\Exact Audio Copy\Flac\flac.exe
Additional command line options : -8 -V -T "ARTIST=%artist%" -T "TITLE=%title%" -T "ALBUM=%albumtitle%" -T "DATE=%year%" -T "TRACKNUMBER=%tracknr%" -T "GENRE=%genre%" -T "PERFORMER=%albuminterpret%" -T "COMPOSER=%composer%" %haslyrics%--tag-from-file=LYRICS="%lyricsfile%"%haslyrics% -T "ALBUMARTIST=%albumartist%" -T "DISCNUMBER=%cdnumber%" -T "TOTALDISCS=%totalcds%" -T "TOTALTRACKS=%numtracks%" -T "COMMENT=%comment%" %source% -o %dest%
TOC of the extracted CD
Track | Start | Length | Start sector | End sector
---------------------------------------------------------
1 | 0:00.00 | 3:49.70 | 0 | 17244
2 | 3:49.70 | 6:13.22 | 17245 | 45241
3 | 10:03.17 | 5:23.55 | 45242 | 69521
4 | 15:26.72 | 6:13.50 | 69522 | 97546
5 | 21:40.47 | 6:18.18 | 97547 | 125914
6 | 27:58.65 | 7:05.50 | 125915 | 157839
7 | 35:04.40 | 6:29.62 | 157840 | 187076
8 | 41:34.27 | 5:13.73 | 187077 | 210624
9 | 46:48.25 | 6:48.65 | 210625 | 241289
10 | 53:37.15 | 5:14.32 | 241290 | 264871
11 | 58:51.47 | 5:45.00 | 264872 | 290746
Track 1
Filename C:\Music\EAC Rips\Akira Tana - Moon Over the World - (2004) [FLAC]\01. Jewel's Eyes.wav
Pre-gap length 0:00:02.00
Peak level 100.0 %
Extraction speed 4.3 X
Track quality 100.0 %
Test CRC C17757EE
Copy CRC C17757EE
Cannot be verified as accurate (confidence 2) [D629D4AD], AccurateRip returned [1306AF78] (AR v2)
Copy OK
Track 2
Filename C:\Music\EAC Rips\Akira Tana - Moon Over the World - (2004) [FLAC]\02. Moon Over the World.wav
Pre-gap length 0:00:00.65
Peak level 98.3 %
Extraction speed 5.3 X
Track quality 100.0 %
Test CRC 250AEB98
Copy CRC 250AEB98
Cannot be verified as accurate (confidence 2) [B8646853], AccurateRip returned [0858178F] (AR v2)
Copy OK
Track 3
Filename C:\Music\EAC Rips\Akira Tana - Moon Over the World - (2004) [FLAC]\03. Koi-no Vacanse (Vacation of Love).wav
Pre-gap length 0:00:01.30
Peak level 99.9 %
Extraction speed 5.8 X
Track quality 100.0 %
Test CRC B72AB6D1
Copy CRC B72AB6D1
Cannot be verified as accurate (confidence 2) [694B47B8], AccurateRip returned [ADFB14A9] (AR v2)
Copy OK
Track 4
Filename C:\Music\EAC Rips\Akira Tana - Moon Over the World - (2004) [FLAC]\04. Sweet Stuff.wav
Pre-gap length 0:00:00.37
Peak level 76.5 %
Extraction speed 6.4 X
Track quality 100.0 %
Test CRC C8864CEE
Copy CRC C8864CEE
Cannot be verified as accurate (confidence 2) [7CBCE29C], AccurateRip returned [EF6D850F] (AR v2)
Copy OK
Track 5
Filename C:\Music\EAC Rips\Akira Tana - Moon Over the World - (2004) [FLAC]\05. Skyline.wav
Pre-gap length 0:00:01.47
Peak level 85.8 %
Extraction speed 7.0 X
Track quality 100.0 %
Test CRC E82145D7
Copy CRC E82145D7
Cannot be verified as accurate (confidence 2) [2A24F09A], AccurateRip returned [E322A36E] (AR v2)
Copy OK
Track 6
Filename C:\Music\EAC Rips\Akira Tana - Moon Over the World - (2004) [FLAC]\06. No Place Is the End of the World.wav
Pre-gap length 0:00:01.30
Peak level 99.7 %
Extraction speed 7.6 X
Track quality 100.0 %
Test CRC BDF475A7
Copy CRC BDF475A7
Cannot be verified as accurate (confidence 2) [6079CEB6], AccurateRip returned [13352566] (AR v2)
Copy OK
Track 7
Filename C:\Music\EAC Rips\Akira Tana - Moon Over the World - (2004) [FLAC]\07. Sofflee.wav
Pre-gap length 0:00:01.00
Peak level 94.3 %
Extraction speed 8.0 X
Track quality 100.0 %
Test CRC E098C930
Copy CRC E098C930
Cannot be verified as accurate (confidence 2) [2B334E13], AccurateRip returned [911D7D4C] (AR v2)
Copy OK
Track 8
Filename C:\Music\EAC Rips\Akira Tana - Moon Over the World - (2004) [FLAC]\08. Condor Man.wav
Pre-gap length 0:00:01.05
Peak level 97.9 %
Extraction speed 8.1 X
Track quality 100.0 %
Test CRC 8372041F
Copy CRC 8372041F
Cannot be verified as accurate (confidence 2) [65A47211], AccurateRip returned [9B42DC26] (AR v2)
Copy OK
Track 9
Filename C:\Music\EAC Rips\Akira Tana - Moon Over the World - (2004) [FLAC]\09. Three Views of a Secret.wav
Pre-gap length 0:00:01.00
Peak level 93.4 %
Extraction speed 8.7 X
Track quality 100.0 %
Test CRC 4302D2B8
Copy CRC 4302D2B8
Cannot be verified as accurate (confidence 2) [7A826484], AccurateRip returned [9F7252EE] (AR v2)
Copy OK
Track 10
Filename C:\Music\EAC Rips\Akira Tana - Moon Over the World - (2004) [FLAC]\10. Chinese Fingers.wav
Pre-gap length 0:00:01.40
Peak level 90.6 %
Extraction speed 8.7 X
Track quality 100.0 %
Test CRC AC2CB2EF
Copy CRC AC2CB2EF
Cannot be verified as accurate (confidence 2) [CD0D1390], AccurateRip returned [5367D89F] (AR v2)
Copy OK
Track 11
Filename C:\Music\EAC Rips\Akira Tana - Moon Over the World - (2004) [FLAC]\11. Reflections of Love.wav
Pre-gap length 0:00:01.12
Peak level 97.2 %
Extraction speed 9.1 X
Track quality 100.0 %
Test CRC EE147FCE
Copy CRC EE147FCE
Cannot be verified as accurate (confidence 2) [8885EACC], AccurateRip returned [10322491] (AR v2)
Copy OK
No tracks could be verified as accurate
You may have a different pressing from the one(s) in the database
No errors occurred
End of status report
---- CUETools DB Plugin V2.1.3
[CTDB TOCID: bisTZdHF9hVlT9igW5RfDGXGVAM-] disk not present in database, Submit result: bisTZdHF9hVlT9igW5RfDGXGVAM- has been uploaded
==== Log checksum 1849FB985A3F9CB00E30DD1B39D11178DDCD58E72C85D25BD7190AA5F6F61DD8 ====
 
.cue
REM GENRE Jazz
REM DATE 2004
REM DISCID 810F240B
REM COMMENT "ExactAudioCopy v1.0b3"
PERFORMER "Akira Tana"
TITLE "Moon Over the World"
FILE "01. Jewel's Eyes.wav" WAVE
TRACK 01 AUDIO
TITLE "Jewel's Eyes"
PERFORMER "Akira Tana"
INDEX 01 00:00:00
TRACK 02 AUDIO
TITLE "Moon Over the World"
PERFORMER "Akira Tana"
INDEX 00 03:49:05
FILE "02. Moon Over the World.wav" WAVE
INDEX 01 00:00:00
TRACK 03 AUDIO
TITLE "Koi-no Vacanse (Vacation of Love)"
PERFORMER "Akira Tana"
INDEX 00 06:11:67
FILE "03. Koi-no Vacanse (Vacation of Love).wav" WAVE
INDEX 01 00:00:00
TRACK 04 AUDIO
TITLE "Sweet Stuff"
PERFORMER "Akira Tana"
INDEX 00 05:23:18
FILE "04. Sweet Stuff.wav" WAVE
INDEX 01 00:00:00
TRACK 05 AUDIO
TITLE "Skyline"
PERFORMER "Akira Tana"
INDEX 00 06:12:03
FILE "05. Skyline.wav" WAVE
INDEX 01 00:00:00
TRACK 06 AUDIO
TITLE "No Place Is the End of the World"
PERFORMER "Akira Tana"
INDEX 00 06:16:63
FILE "06. No Place Is the End of the World.wav" WAVE
INDEX 01 00:00:00
TRACK 07 AUDIO
TITLE "Sofflee"
PERFORMER "Akira Tana"
INDEX 00 07:04:50
FILE "07. Sofflee.wav" WAVE
INDEX 01 00:00:00
TRACK 08 AUDIO
TITLE "Condor Man"
PERFORMER "Akira Tana"
INDEX 00 06:28:57
FILE "08. Condor Man.wav" WAVE
INDEX 01 00:00:00
TRACK 09 AUDIO
TITLE "Three Views of a Secret"
PERFORMER "Akira Tana"
INDEX 00 05:12:73
FILE "09. Three Views of a Secret.wav" WAVE
INDEX 01 00:00:00
TRACK 10 AUDIO
TITLE "Chinese Fingers"
PERFORMER "Akira Tana"
INDEX 00 06:47:25
FILE "10. Chinese Fingers.wav" WAVE
INDEX 01 00:00:00
TRACK 11 AUDIO
TITLE "Reflections of Love"
PERFORMER "Akira Tana"
INDEX 00 05:13:20
FILE "11. Reflections of Love.wav" WAVE
INDEX 01 00:00:00

другие релизы
По всем вопросам пишите личное сообщение пользователю M0p94ok.
16:25
160
Нет комментариев. Ваш будет первым!