Вы используете незарегистрированную версию компонента "Вкладки"!

Поиск

(Avant-Garde / Modern Composition) Zeena Parkins - Isabelle - 1993, FLAC (image+.cue), lossless

(Avant-Garde / Modern Composition) Zeena Parkins - Isabelle - 1993, FLAC (image+.cue), lossless
Треклист:
Zeena Parkins - Isabelle
Жанр: Avant-Garde / Modern Composition
Год выпуска диска: 1993
Производитель диска: Japan (Avant / Disk Union AVAN 018)
Аудио кодек: FLAC
Тип рипа: image+.cue
Битрейт аудио: lossless
Продолжительность: 40:49
ISABELLE (1993)
Zeena Parkins sampler, electric harp, piano, snare drum
Lisa Crowder piano
Margaret Parkins cello
Sara Parkins violin
1. outside (2'58)
2. The Magician (5'05)
3. EL OUED: Romance (1'35)
4. Si Mahmoud Essadi: The Convert (5'00)
5. La Petite Gironde: Victor Barrucand lends a hand (1'36)
6. Fever (1'15)
7. Monastery of Kenadsa (2'12)
8. AIN SERA: In Captivity and Flood (4'00)
9. Oblivian Seekers (2'41)
10. The Breath of Night (2'00)
Compositions by Zeena Parkins.
Recorded September 1993 at Baby Monster Studio, engineered by Bryce Goggin.
HUP! (1992)
Zeena Parkins sampler, electric harp, East Berlin Toy
Ikue Mori electric percussion
11. Look out for Gail Garrity - Girl Wonder (3'18)
12. Chamber of Eternal Wisdom (2'26)
13. ...the uncanny feeling of being watched... (3'08)
14. "MY GOD! Have I flung myself into an endless void?" (1'33)
15. Ju Jitsu Jimmy - Impulse Beam Rising (1'56)
Composed by Zeena Parkins & Ikue Mori.
Recorded Fall 1992 at Harmonic Ranch Studio, engineered by Brooks Williams.

 
AMG Review
"Isabelle is a work from 1993 by the New York avant-garde composer and improviser which utilizes the small ensemble of the composer on sampler and electric harp with sisters Margret Parkins on cello, Sarah Parkins on violin, and Lisa Crowder on piano. Divided into ten parts, the suite draws on the story of the life of Isabelle Eberhardt, an explorer, wanderer, and writer whose diaries of turn-of-the century nomadism in North Africa are the basis for these eloquent musical miniatures. Zeena Parkins took inspiration from her travelogues and transformed the modes of North African traditional folk and religious music fused with European classical and a healthy input of lively avant-garde improvisation. The piece culminates in an outstanding closing section in 'Oblivion Seekers' and 'The Breath of the Night', an evocative exercise in atmospherics from Zeena Parkins' harp.
A second work dating from 1992, Hup!, is a duo of Zeena Parkins on harp and sampler with Ikue Mori on drum machines. What sets out with sparse ambient gestures builds into a fanfare of sampling and tone-bending over the five pieces - a magnificent work which is entirely complementary to the title piece in its playfulness." ~ Skip Jansen, AMG
 
From an interview by Steve Elkins
"I put together an ensemble, called Gangster Band, which I used to explore a number of musical ideas. One was a piece based around Rotwelsch, which is a Yiddish-based gangster language used in Germany from the 14th century to the 19th century. It was a secret code used by thieves, which altered the meanings of familiar Yiddish words for use in the subterranean world. One of my sources was a forced police coercion of a professional forger who worked with the Rotwelsch-speaking thugs. He was caught by police and put in jail.
I think that interest in the connection between visible and concealed worlds was explored in a very different way through a later Gangster Band piece, "Pan-Acousticon," which was inspired by Bill McCagg, an Eastern European scholar who was unusually adept at learning languages, but suffered from increasing deafness. So that piece was more of an exploration into the inner life of one man's passage between the audible world and the echoes of that world which he could only hear inside himself.
I think that interest in the connection between visible and concealed worlds was explored in a very different way through a later Gangster Band piece, "Pan-Acousticon," which was inspired by Bill McCagg, an Eastern European scholar who was unusually adept at learning languages, but suffered from increasing deafness. So that piece was more of an exploration into the inner life of one man's passage between the audible world and the echoes of that world which he could only hear inside himself.
My first piece for Gangster Band was a musical exploration of the life of the European nomad Isabelle Eberhardt. Here again, I imagined, through music, her dual exploration of the outer world of the Algerian desert, and the silent world she experienced dressed as a man in order to have the freedom to travel in Arab society that she may not have had otherwise, after her conversion to Islam." ~ Zeena Parkins, from an interview by Steve Elkins, Canada, 2002
 
EAC Report
Exact Audio Copy V0.99 prebeta 4 from 23. January 2008
EAC extraction logfile from 26. June 2009, 16:24
Zeena Parkins / Isabelle
Used drive : HL-DT-STDVD-ROM GDR8162B Adapter: 1 ID: 0
Read mode : Secure
Utilize accurate stream : Yes
Defeat audio cache : Yes
Make use of C2 pointers : No
Read offset correction : 102
Overread into Lead-In and Lead-Out : No
Fill up missing offset samples with silence : Yes
Delete leading and trailing silent blocks : No
Null samples used in CRC calculations : Yes
Used interface : Installed external ASPI interface
Used output format : User Defined Encoder
Selected bitrate : 1024 kBit/s
Quality : High
Add ID3 tag : No
Command line compressor : C:\Program Files\Exact Audio Copy\FLAC\FLAC.EXE
Additional command line options : -6 -V -T "ARTIST=%a" -T "TITLE=%t" -T "ALBUM=%g" -T "DATE=%y" -T "TRACKNUMBER=%n" -T "GENRE=%m" -T "COMMENT=%e" %s -o %d
TOC of the extracted CD
Track | Start | Length | Start sector | End sector
---------------------------------------------------------
1 | 0:00.00 | 2:58.40 | 0 | 13389
2 | 2:58.40 | 5:05.17 | 13390 | 36281
3 | 8:03.57 | 1:35.45 | 36282 | 43451
4 | 9:39.27 | 5:00.65 | 43452 | 66016
5 | 14:40.17 | 1:36.40 | 66017 | 73256
6 | 16:16.57 | 1:15.33 | 73257 | 78914
7 | 17:32.15 | 2:12.10 | 78915 | 88824
8 | 19:44.25 | 4:00.07 | 88825 | 106831
9 | 23:44.32 | 2:41.48 | 106832 | 118954
10 | 26:26.05 | 2:00.17 | 118955 | 127971
11 | 28:26.22 | 3:18.30 | 127972 | 142851
12 | 31:44.52 | 2:26.15 | 142852 | 153816
13 | 34:10.67 | 3:08.23 | 153817 | 167939
14 | 37:19.15 | 1:33.42 | 167940 | 174956
15 | 38:52.57 | 1:56.05 | 174957 | 183661
Range status and errors
Selected range
Filename C:\eac\Zeena Parkins - Isabelle.wav
Peak level 97.7 %
Range quality 100.0 %
Test CRC 3BDB0542
Copy CRC 3BDB0542
Copy OK
No errors occurred
End of status report
Any questions -> support@pro-jazz.com. По всем вопросам пишите -> support@pro-jazz.com
15:06
140
Нет комментариев. Ваш будет первым!