Вы используете незарегистрированную версию компонента "Вкладки"!

Поиск

(Avant-Garde / Modern Composition / Structured Improvisation / Free Improvisation / Tzadik Oracles) Zeena Parkins - Necklace - 2006, FLAC (image+.cue), lossless

(Avant-Garde / Modern Composition / Structured Improvisation / Free Improvisation / Tzadik Oracles) Zeena Parkins - Necklace - 2006, FLAC (image+.cue), lossless
Треклист:
Zeena Parkins - Necklace
Жанр: Avant-Garde / Modern Composition / Structured Improvisation / Free Improvisation / Tzadik Oracles
Год выпуска диска: 2006
Производитель диска: USA (Tzadik Oracles TZ 8022)
Аудио кодек: FLAC
Тип рипа: image+.cue
Битрейт аудио: lossless
Продолжительность: 43:20
Zeena Parkins acoustic Harp, processing
Doug Henderson processing
Eclipse Quartet
Joanna Hood viola
Sara Parkins violin
Margaret Parkins cello
Sarah Thornblade violin
Eight Dancers from Compagnie Sui-Generis
1. Persuasion
2. 16 Feet + Cello
3. Solo For Neil
Visible / Invisible
4. The Hand
5. Anamnesis
6. The Necklace

 
Release notes
A remarkable new CD of compositions from one of the world’s most radical harpists, who has worked with Bjork, Fred Frith, John Zorn, Bang on a Can and many many others. Including two dynamic new string quartets, a piece for sixteen feet and cello and a brilliant composition for harp solo, this is one of Zeena’s most important and ambitious releases. ~ Tzadik Release Notes
 
AMG Review
It's been awhile since Zeena Parkins released a recording on Tzadik. Her last for the label, Pan-Acousticon was issued in 1999, and it was here she set out to explore relationships between orchestral instruments (sampled), strings, drums, and homemade instruments. She appeared in collaboration with Lesli Dalaba on her fantastic Tzadik issue Timelines in 2004 and collaborated with Ikue Mori on Phantom Orchard for the Mego label the same year. Necklace contains four new works, beginning with the dazzling "Persuasion," for string quartet and electronic processing. Performed by the Eclipse Quartet (Parkins' sisters Sara and Maggie are members), "Persuasion" is a dazzling series of moments where texture, dynamic, and timbre are brought into play gradually, interlocking with others. As one set of themes is ushered in, another leaves, only to return in combination with others in sometimes staggered and layered forms. This is done by the electronic processing of Parkins and Doug Henderson. The quartet can sound like dozens of strings harmonically playing as one. "16 Feet + Cello" was written for eight dancers (from Comanie Sui-Generis) and Maggie's cello. Scratched, plucked, detuned strings are mic'ed on the same level as the dancer's feet. Percussive patterns emerge under the sonic assault provided by the lone instrument. Parkins' "Solo for Neil" is a short work she performs on her harp. Haunting, spare, full of surprises, it is an exercise in droning tones and glissandi that resonates form one passage into the next. The effect is somewhat eerie but utterly beautiful. The final work here, "Visible/Invisible," was scored solely for string quartet and is performed by Eclipse. In three parts it explores drone and percussive attacks as they emerge from the sound of wood to scrapes and saws, all in overtone in the first section, to the large spaces and tensions in the second to the sprightly, minor key explorations of the third,which is breathtaking and intense. These are disciplined, orderly, and striking pieces that offer a small view of what Parkins, one of the more ambitious artists on the downtown scene, has been up to. Recommended. ~ Thom Jurek, AMG
 
EAC Report
Exact Audio Copy V0.99 prebeta 4 from 23. January 2008
EAC extraction logfile from 12. April 2009, 17:54
Zeena Parkins / Necklace
Used drive : TSSTcorpCD/DVDW SH-S182M Adapter: 2 ID: 0
Read mode : Secure
Utilize accurate stream : Yes
Defeat audio cache : Yes
Make use of C2 pointers : No
Read offset correction : 6
Overread into Lead-In and Lead-Out : No
Fill up missing offset samples with silence : Yes
Delete leading and trailing silent blocks : No
Null samples used in CRC calculations : Yes
Used interface : Installed external ASPI interface
Used output format : User Defined Encoder
Selected bitrate : 1024 kBit/s
Quality : High
Add ID3 tag : No
Command line compressor : C:\Program Files\Exact Audio Copy\FLAC\FLAC.EXE
Additional command line options : -8 -V -T "ARTIST=%a" -T "TITLE=%t" -T "ALBUM=%g" -T "DATE=%y" -T "TRACKNUMBER=%n" -T "GENRE=%m" -T "COMMENT=%e" %s -o %d
TOC of the extracted CD
Track | Start | Length | Start sector | End sector
---------------------------------------------------------
1 | 0:00.00 | 16:53.20 | 0 | 75994
2 | 16:53.20 | 5:24.72 | 75995 | 100366
3 | 22:18.17 | 3:51.57 | 100367 | 117748
4 | 26:09.74 | 5:44.36 | 117749 | 143584
5 | 31:54.35 | 6:42.71 | 143585 | 173805
6 | 38:37.31 | 4:42.44 | 173806 | 194999
Range status and errors
Selected range
Filename C:\Documents and Settings\Igor\My Documents\My Music\eac\Zeena Parkins - Necklace.wav
Peak level 98.8 %
Range quality 100.0 %
Test CRC D4AFA218
Copy CRC D4AFA218
Copy OK
No errors occurred
AccurateRip summary
Track 1 not present in database
Track 2 not present in database
Track 3 not present in database
Track 4 not present in database
Track 5 not present in database
Track 6 not present in database
None of the tracks are present in the AccurateRip database
End of status report
По всем вопросам пишите личное сообщение пользователю M0p94ok.
15:07
145
Нет комментариев. Ваш будет первым!