Вы используете незарегистрированную версию компонента "Вкладки"!

Поиск

(Free Jazz) Cuong Vu - Vu-Tet - 2007, FLAC (tracks+.cue), lossless

(Free Jazz) Cuong Vu - Vu-Tet - 2007, FLAC (tracks+.cue), lossless
Треклист:
Cuong Vu - Vu-Tet
Жанр: Free Jazz
Год выпуска диска: 2007
Производитель диска: Vietnam, ArtistShare
Catalog #: AS0073
Аудио кодек: FLAC
Тип рипа: tracks+.cue
Битрейт аудио: lossless
Продолжительность: 00:54:15
Источник: NNM
Трэклист:
1. Intro (06:54)
2. Accelerated Thoughts (06:26)
3. Solitary Confinement (10:12)
4. Just A Memory (07:03)
5. Never, Ever, Ever (07:27)
6. Now I Know (For Vina) (07:26)
7. I Promise (08:44)
Line Up:
Stomu Takeishi — bass
Ted Poor — drums
Chris Speed — sax, clarinet
Cuong Vu — trumpet
Официальный сайт
Последняя на сегодня сольная работа интереснейшего современного джазового трубача из Вьетнама. Чудесный диск с невероятной тягучей трубой, неторопливый и захватывающий, рекомендую.
 
XLD extraction logfile
X Lossless Decoder version 20080926 (93.3)
XLD extraction logfile from 2008-11-24 19:10:45 +0100
Cuong Vu / Vu-Tet
Used drive : MATSHITA DVD-R UJ-85J (revision FBZ8)
Use cdparanoia mode : YES (CDParanoia III 10.2 engine)
Disable audio cache : OK for the drive with cache less than 2750KB
Make use of C2 pointers : NO
Read offset correction : 102
Max retry count : 100
TOC of the extracted CD
Track | Start | Length | Start sector | End sector
---------------------------------------------------------
1 | 00:00:00 | 06:54:25 | 0 | 31074
2 | 06:54:25 | 06:26:24 | 31075 | 60048
3 | 13:20:49 | 10:12:41 | 60049 | 105989
4 | 23:33:15 | 07:03:31 | 105990 | 137745
5 | 30:36:46 | 07:27:20 | 137746 | 171290
6 | 38:03:66 | 07:26:51 | 171291 | 204791
7 | 45:30:42 | 08:44:34 | 204792 | 244125
All Tracks
Album gain : -4.74 dB
Peak : 0.977661
Track 01
Filename : /Cuong Vu - Vu-Tet (2007) [FLAC]/01 - Intro.flac
Track gain : -5.45 dB
Peak : 0.977600
CRC32 hash (test run) : 79DF3376
CRC32 hash : 79DF3376
CRC32 hash (skip zero) : 4D047B74
AccurateRip signature : 87871CB5
->Track not present in AccurateRip database.
Statistics
Read error : 0
Skipped (treated as error) : 0
Edge jitter error (maybe fixed) : 0
Atom jitter error (maybe fixed) : 0
Drift error (maybe fixed) : 0
Dropped bytes error (maybe fixed) : 0
Duplicated bytes error (maybe fixed) : 0
Inconsistency in error sectors : 0
Track 02
Filename : /Cuong Vu - Vu-Tet (2007) [FLAC]/02 - Accelerated Thoughts.flac
Track gain : -5.11 dB
Peak : 0.977631
CRC32 hash (test run) : B1562A82
CRC32 hash : B1562A82
CRC32 hash (skip zero) : DD02EB8E
AccurateRip signature : C0E2957E
->Track not present in AccurateRip database.
Statistics
Read error : 0
Skipped (treated as error) : 0
Edge jitter error (maybe fixed) : 0
Atom jitter error (maybe fixed) : 0
Drift error (maybe fixed) : 0
Dropped bytes error (maybe fixed) : 0
Duplicated bytes error (maybe fixed) : 0
Inconsistency in error sectors : 0
Track 03
Filename : /Cuong Vu - Vu-Tet (2007) [FLAC]/03 - Solitary Confinement.flac
Track gain : -4.72 dB
Peak : 0.977661
CRC32 hash (test run) : FF7FF099
CRC32 hash : FF7FF099
CRC32 hash (skip zero) : AE1CFD81
AccurateRip signature : A1C481B7
->Track not present in AccurateRip database.
Statistics
Read error : 0
Skipped (treated as error) : 0
Edge jitter error (maybe fixed) : 0
Atom jitter error (maybe fixed) : 0
Drift error (maybe fixed) : 0
Dropped bytes error (maybe fixed) : 0
Duplicated bytes error (maybe fixed) : 0
Inconsistency in error sectors : 0
Track 04
Filename : /Cuong Vu - Vu-Tet (2007) [FLAC]/04 - Just A Memory.flac
Track gain : -4.23 dB
Peak : 0.977600
CRC32 hash (test run) : 02F62601
CRC32 hash : 02F62601
CRC32 hash (skip zero) : F89495F2
AccurateRip signature : 8B07DA61
->Track not present in AccurateRip database.
Statistics
Read error : 0
Skipped (treated as error) : 0
Edge jitter error (maybe fixed) : 0
Atom jitter error (maybe fixed) : 0
Drift error (maybe fixed) : 0
Dropped bytes error (maybe fixed) : 0
Duplicated bytes error (maybe fixed) : 0
Inconsistency in error sectors : 0
Track 05
Filename : /Cuong Vu - Vu-Tet (2007) [FLAC]/05 - Never, Ever, Ever.flac
Track gain : -4.62 dB
Peak : 0.977631
CRC32 hash (test run) : 59B830CD
CRC32 hash : 59B830CD
CRC32 hash (skip zero) : 736555A4
AccurateRip signature : 69A05BF4
->Track not present in AccurateRip database.
Statistics
Read error : 0
Skipped (treated as error) : 0
Edge jitter error (maybe fixed) : 0
Atom jitter error (maybe fixed) : 0
Drift error (maybe fixed) : 0
Dropped bytes error (maybe fixed) : 0
Duplicated bytes error (maybe fixed) : 0
Inconsistency in error sectors : 0
Track 06
Filename : /Cuong Vu - Vu-Tet (2007) [FLAC]/06 - Now I Know (For Vina).flac
Track gain : -4.75 dB
Peak : 0.977509
CRC32 hash (test run) : BF7D49F6
CRC32 hash : BF7D49F6
CRC32 hash (skip zero) : BE071074
AccurateRip signature : 4336BBAA
->Track not present in AccurateRip database.
Statistics
Read error : 0
Skipped (treated as error) : 0
Edge jitter error (maybe fixed) : 0
Atom jitter error (maybe fixed) : 0
Drift error (maybe fixed) : 0
Dropped bytes error (maybe fixed) : 0
Duplicated bytes error (maybe fixed) : 0
Inconsistency in error sectors : 0
Track 07
Filename : /Cuong Vu - Vu-Tet (2007) [FLAC]/07 - I Promise.flac
Track gain : -3.94 dB
Peak : 0.977509
CRC32 hash (test run) : 6B034E6A
CRC32 hash : 6B034E6A
CRC32 hash (skip zero) : A4E261EE
AccurateRip signature : CF2568B4
->Track not present in AccurateRip database.
Statistics
Read error : 0
Skipped (treated as error) : 0
Edge jitter error (maybe fixed) : 0
Atom jitter error (maybe fixed) : 0
Drift error (maybe fixed) : 0
Dropped bytes error (maybe fixed) : 0
Duplicated bytes error (maybe fixed) : 0
Inconsistency in error sectors : 0
No errors occurred
End of status report
 
audiochecker
AUDIOCHECKER v2.0 beta (build 457) - by Dester - opdester@freemail.hu
~~~~~~~~~~~~~~~~~~~~~~~~~~~~~~~~~~
-=== DO NOT EDIT THIS FILE! ===-
Path: ...\Cuong Vu - Vu-Tet (2007) [flac]
1 -=- 01 - Intro.flac -=- CDDA (100%)
2 -=- 02 - Accelerated Thoughts.flac -=- CDDA (100%)
3 -=- 03 - Solitary Confinement.flac -=- CDDA (100%)
4 -=- 04 - Just A Memory.flac -=- CDDA (100%)
5 -=- 05 - Never, Ever, Ever.flac -=- CDDA (100%)
6 -=- 06 - Now I Know (For Vina).flac -=- CDDA (99%)
7 -=- 07 - I Promise.flac -=- CDDA (100%)
Summary 99,86% CDDA
198273700
 
Review by John Kelman
On Vu-Tet, his follow-up to It's Mostly Residual (ArtistShare, 2005), trumpeter Cuong Vu continues to mine similar turf, ranging from the deeply lyrical to the aggressively hardcore. But with considerable touring under the belt of his regular working trio, featuring bassist Stomu Takeishi and drummer Ted Poor—with and without Vu-Tet's guest saxophonist/clarinetist Chris Speed—there's an emerging group identity as concerned with texture and color as it is playing that is at times delicate and ethereal, elsewhere visceral and fervently propulsive.
With the possible exception of Norway's Nils Petter Molvaer and Arve Henriksen, there's simply no other trumpeter on the radar today as innovative in blending extended technique and electronic processing to expand the possibilities of his instrument. Utilizing both to dramatic effect, Vu turns the opening "Intro" into a sonic tour de force that begins atmospherically but gradually intensifies, with Takeishi creating his own layers of sound and Poor playing orchestrally rather than rhythmically. It's an evocative opener that sets the stage for "Accelerated Thoughts," a high-velocity tune with a knotty theme that breaks down into a staggered rhythm before heading into a grungy solo section for Takeishi, his fretless bass heavily distorted and supported by Poor's relentless backbeat. Vu's virtuosic solo alternates between rapid-fire lines and dissonant screeches, while Speed delivers an equally unfettered tenor solo of considerable abandon.
While there's no shortage of freedom for the group, Vu's writing is becoming increasingly sophisticated. The texture, power and improvisation may suggest otherwise, but the lengthy development of "Solitary Confinement" is unmistakably informed by contemporary classical music, with Vu and Speed's clarinet winding a long unison line in and around Takeishi and Poor's counterpoint. Speed's solo doesn't enter until a third of the way in, with Takeishi and Poor once again turning more angular and assaultive. While the jazz tradition is buried deeply, and despite the atmospheric ambience at the beginning of his solo, there are traces of swing and post bop in Vu's phrasing before everyone heads, once again, for greater extremes.
Despite the idiosyncrasies of compositions like the rhythmically complex but ultimately grooving "Never, Ever, Ever," Vu remains capable of deep lyricism. The balladic "Just a Memory" builds a singable theme over Takeishi's Jaco-like playing and Poor's economical kit, while "Now I Know" is darker but equally melodic, with a collective improvisation around its spare changes made all the more dense through Vu's processed trumpet and Takeishi's thick tone.
While Vu became more visible when he joined the Pat Metheny Group in 2001, his work on the guitarist's more eminently accessible Speaking of Now (Warner Bros., 2002) and ambitious The Way Up (Nonesuch, 2005) hasn't compromised his own evolving voice. Instead, Vu-Tet capitalizes on and expands upon the successes of It's Mostly Residual, with even greater compositional depth, textural breadth, improvisational freedom and intimate group interaction.Review by John Kelman, www.allaboutjazz.com
По всем вопросам пишите личное сообщение пользователю M0p94ok.
15:05
179
Нет комментариев. Ваш будет первым!