Вы используете незарегистрированную версию компонента "Вкладки"!

Поиск

(Avant-Garde, Modern Composition, Experimental) The Abstractions - Ars Vivende - 2003, FLAC (tracks+.cue), lossless

(Avant-Garde, Modern Composition, Experimental) The Abstractions - Ars Vivende - 2003, FLAC (tracks+.cue), lossless
Треклист:
The Abstractions / Ars Vivende
Жанр: Avant-Garde, Modern Composition, Experimental
Страна-производитель диска: US
Год издания: 2003
Издатель (лейбл): Edgetone Records / Pax Recordings
Номер по каталогу: EDT4019 / PR90260
Страна: US
Аудиокодек: FLAC (*.flac)
Тип рипа: tracks+.cue
Битрейт аудио: lossless
Продолжительность: 76:17
Источник (релизер): свой фирменный диск
Наличие сканов в содержимом раздачи:
Треклист:
1. The Bitter Undiscovered Alienated (Male) Genius Club 3:29
2. The Tower 1:14
3. Cultivate The Voices In The Wilderness 3:15
4. Your Eyes Taste Like Steel 2:52
5. Lurch 7:00
6. The Thread 3:28
7. Amerika Not Beautiful 0:34
8. A Furiously Fatal Future 6:40
9. Companions On A Journey Through A Lost Amerika 2:05
10. After The WAR 2:15
11. Caress Of The Claw 2:16
12. Demon Down 3:33
13. Rain Of Bullets 8:16
14. That Hideous Beauty 0:39
15. Armageddon Under Glass 1:01
16. Psychotronix Melodramatix 0:33
17. But Not For Me 3:01
18. Universal fLAW 0:33
19. No More Loans 2:30
20. Peeling Back The Layers Of A Dead Foot 7:56
21. Flow Between My Past And My Future 5:03
22. Heart Of Midnight 7:53
 
Лог создания рипа
Exact Audio Copy V1.0 beta 3 from 29. August 2011
EAC extraction logfile from 25. August 2013, 22:11
The Abstractions / Ars Vivende
Used drive : PIONEER DVD-RW DVR-115D Adapter: 0 ID: 0
Read mode : Secure
Utilize accurate stream : Yes
Defeat audio cache : Yes
Make use of C2 pointers : No
Read offset correction : 48
Overread into Lead-In and Lead-Out : No
Fill up missing offset samples with silence : Yes
Delete leading and trailing silent blocks : No
Null samples used in CRC calculations : Yes
Used interface : Installed external ASPI interface
Gap handling : Appended to previous track
Used output format : User Defined Encoder
Selected bitrate : 896 kBit/s
Quality : High
Add ID3 tag : No
Command line compressor : C:\Program Files\Exact Audio Copy\FLAC\FLAC.EXE
Additional command line options : -6 -V -T "ARTIST=%artist%" -T "TITLE=%title%" -T "ALBUM=%albumtitle%" -T "DATE=%year%" -T "TRACKNUMBER=%tracknr%" -T "GENRE=%genre%" -T "COMMENT=%comment%" -T "BAND=%albuminterpret%" -T "COMPOSER=%composer%" %haslyrics%--tag-from-file=LYRICS="%lyricsfile%"%haslyrics% -T "DISCNUMBER=%cdnumber%" -T "TOTALDISCS=%totalcds%" -T "TOTALTRACKS=%numtracks%" %hascover%--picture="%coverfile%"%hascover% %source% -o %dest%
TOC of the extracted CD
Track | Start | Length | Start sector | End sector
---------------------------------------------------------
1 | 0:00.00 | 3:29.37 | 0 | 15711
2 | 3:29.37 | 1:14.63 | 15712 | 21324
3 | 4:44.25 | 3:15.07 | 21325 | 35956
4 | 7:59.32 | 2:52.43 | 35957 | 48899
5 | 10:52.00 | 7:00.39 | 48900 | 80438
6 | 17:52.39 | 3:28.02 | 80439 | 96040
7 | 21:20.41 | 0:34.70 | 96041 | 98660
8 | 21:55.36 | 6:40.09 | 98661 | 128669
9 | 28:35.45 | 2:05.61 | 128670 | 138105
10 | 30:41.31 | 2:15.34 | 138106 | 148264
11 | 32:56.65 | 2:16.59 | 148265 | 158523
12 | 35:13.49 | 3:33.64 | 158524 | 174562
13 | 38:47.38 | 8:16.39 | 174563 | 211801
14 | 47:04.02 | 0:39.45 | 211802 | 214771
15 | 47:43.47 | 1:01.56 | 214772 | 219402
16 | 48:45.28 | 0:33.66 | 219403 | 221943
17 | 49:19.19 | 3:01.74 | 221944 | 235592
18 | 52:21.18 | 0:33.01 | 235593 | 238068
19 | 52:54.19 | 2:30.11 | 238069 | 249329
20 | 55:24.30 | 7:56.28 | 249330 | 285057
21 | 63:20.58 | 5:03.43 | 285058 | 307825
22 | 68:24.26 | 7:53.22 | 307826 | 343322
Track 1
Filename D:\zzz\01 - The Bitter Undiscovered Alienated (Male) Genius Club.wav
Pre-gap length 0:00:02.00
Peak level 100.0 %
Extraction speed 4.0 X
Track quality 99.9 %
Test CRC 687CE0EF
Copy CRC 687CE0EF
Track not present in AccurateRip database
Copy OK
Track 2
Filename D:\zzz\02 - The Tower.wav
Peak level 100.0 %
Extraction speed 3.8 X
Track quality 100.0 %
Test CRC FC6EBFA5
Copy CRC FC6EBFA5
Track not present in AccurateRip database
Copy OK
Track 3
Filename D:\zzz\03 - Cultivate The Voices In The Wilderness.wav
Peak level 100.0 %
Extraction speed 5.0 X
Track quality 100.0 %
Test CRC B27BECC1
Copy CRC B27BECC1
Track not present in AccurateRip database
Copy OK
Track 4
Filename D:\zzz\04 - Your Eyes Taste Like Steel.wav
Peak level 99.9 %
Extraction speed 5.2 X
Track quality 100.0 %
Test CRC F50BC686
Copy CRC F50BC686
Track not present in AccurateRip database
Copy OK
Track 5
Filename D:\zzz\05 - Lurch.wav
Peak level 100.0 %
Extraction speed 6.2 X
Track quality 100.0 %
Test CRC 82C13301
Copy CRC 82C13301
Track not present in AccurateRip database
Copy OK
Track 6
Filename D:\zzz\06 - The Thread.wav
Peak level 100.0 %
Extraction speed 6.1 X
Track quality 100.0 %
Test CRC 79E90006
Copy CRC 79E90006
Track not present in AccurateRip database
Copy OK
Track 7
Filename D:\zzz\07 - Amerika Not Beautiful.wav
Peak level 100.0 %
Extraction speed 3.6 X
Track quality 100.0 %
Test CRC 718F073F
Copy CRC 718F073F
Track not present in AccurateRip database
Copy OK
Track 8
Filename D:\zzz\08 - A Furiously Fatal Future.wav
Peak level 100.0 %
Extraction speed 7.0 X
Track quality 100.0 %
Test CRC 94EB533C
Copy CRC 94EB533C
Track not present in AccurateRip database
Copy OK
Track 9
Filename D:\zzz\09 - Companions On A Journey Through A Lost Amerika.wav
Peak level 100.0 %
Extraction speed 5.2 X
Track quality 99.9 %
Test CRC 98CCA87A
Copy CRC 98CCA87A
Track not present in AccurateRip database
Copy OK
Track 10
Filename D:\zzz\10 - After The WAR.wav
Peak level 100.0 %
Extraction speed 5.3 X
Track quality 99.9 %
Test CRC 119B8FE1
Copy CRC 119B8FE1
Track not present in AccurateRip database
Copy OK
Track 11
Filename D:\zzz\11 - Caress Of The Claw.wav
Peak level 100.0 %
Extraction speed 5.5 X
Track quality 99.9 %
Test CRC 5D6727FE
Copy CRC 5D6727FE
Track not present in AccurateRip database
Copy OK
Track 12
Filename D:\zzz\12 - Demon Down.wav
Peak level 100.0 %
Extraction speed 7.3 X
Track quality 100.0 %
Test CRC 93FD5C08
Copy CRC 93FD5C08
Track not present in AccurateRip database
Copy OK
Track 13
Filename D:\zzz\13 - Rain Of Bullets.wav
Peak level 100.0 %
Extraction speed 8.3 X
Track quality 100.0 %
Test CRC E67FEC57
Copy CRC E67FEC57
Track not present in AccurateRip database
Copy OK
Track 14
Filename D:\zzz\14 - That Hideous Beauty.wav
Peak level 100.0 %
Extraction speed 4.8 X
Track quality 100.0 %
Test CRC BE3D6F35
Copy CRC BE3D6F35
Track not present in AccurateRip database
Copy OK
Track 15
Filename D:\zzz\15 - Armageddon Under Glass.wav
Peak level 99.9 %
Extraction speed 4.3 X
Track quality 99.8 %
Test CRC 3F8E41C7
Copy CRC 3F8E41C7
Track not present in AccurateRip database
Copy OK
Track 16
Filename D:\zzz\16 - Psychotronix Melodramatix.wav
Peak level 100.0 %
Extraction speed 4.3 X
Track quality 100.0 %
Test CRC 47E058D8
Copy CRC 47E058D8
Track not present in AccurateRip database
Copy OK
Track 17
Filename D:\zzz\17 - But Not For Me.wav
Peak level 100.0 %
Extraction speed 7.8 X
Track quality 100.0 %
Test CRC 0DE740B2
Copy CRC 0DE740B2
Track not present in AccurateRip database
Copy OK
Track 18
Filename D:\zzz\18 - Universal fLAW.wav
Peak level 100.0 %
Extraction speed 4.5 X
Track quality 100.0 %
Test CRC D1868AE7
Copy CRC D1868AE7
Track not present in AccurateRip database
Copy OK
Track 19
Filename D:\zzz\19 - No More Loans.wav
Peak level 100.0 %
Extraction speed 7.7 X
Track quality 100.0 %
Test CRC 51063CAA
Copy CRC 51063CAA
Track not present in AccurateRip database
Copy OK
Track 20
Filename D:\zzz\20 - Peeling Back The Layers Of A Dead Foot.wav
Peak level 96.4 %
Extraction speed 9.2 X
Track quality 100.0 %
Test CRC FB6805E9
Copy CRC FB6805E9
Track not present in AccurateRip database
Copy OK
Track 21
Filename D:\zzz\21 - Flow Between My Past And My Future.wav
Peak level 100.0 %
Extraction speed 9.2 X
Track quality 100.0 %
Test CRC 1FD8C6B1
Copy CRC 1FD8C6B1
Track not present in AccurateRip database
Copy OK
Track 22
Filename D:\zzz\22 - Heart Of Midnight.wav
Peak level 100.0 %
Extraction speed 9.8 X
Track quality 100.0 %
Test CRC 64E9FD25
Copy CRC 64E9FD25
Track not present in AccurateRip database
Copy OK
None of the tracks are present in the AccurateRip database
No errors occurred
End of status report
==== Log checksum 8AC743A5D7E8AE4B202EAF7D1EE98CF52790DFD6379D5A6225F554EE48B767DC ====
 
Содержание индексной карты (.CUE)
REM GENRE Avant-Garde
REM DATE 2003
REM DISCID 3911E116
REM COMMENT "ExactAudioCopy v1.0b3"
PERFORMER "The Abstractions"
TITLE "Ars Vivende"
FILE "01 - The Bitter Undiscovered Alienated (Male) Genius Club.wav" WAVE
TRACK 01 AUDIO
TITLE "The Bitter Undiscovered Alienated (Male) Genius Club"
PERFORMER "The Abstractions"
FLAGS DCP
INDEX 01 00:00:00
FILE "02 - The Tower.wav" WAVE
TRACK 02 AUDIO
TITLE "The Tower"
PERFORMER "The Abstractions"
FLAGS DCP
INDEX 01 00:00:00
FILE "03 - Cultivate The Voices In The Wilderness.wav" WAVE
TRACK 03 AUDIO
TITLE "Cultivate The Voices In The Wilderness"
PERFORMER "The Abstractions"
FLAGS DCP
INDEX 01 00:00:00
FILE "04 - Your Eyes Taste Like Steel.wav" WAVE
TRACK 04 AUDIO
TITLE "Your Eyes Taste Like Steel"
PERFORMER "The Abstractions"
FLAGS DCP
INDEX 01 00:00:00
FILE "05 - Lurch.wav" WAVE
TRACK 05 AUDIO
TITLE "Lurch"
PERFORMER "The Abstractions"
FLAGS DCP
INDEX 01 00:00:00
FILE "06 - The Thread.wav" WAVE
TRACK 06 AUDIO
TITLE "The Thread"
PERFORMER "The Abstractions"
FLAGS DCP
INDEX 01 00:00:00
FILE "07 - Amerika Not Beautiful.wav" WAVE
TRACK 07 AUDIO
TITLE "Amerika Not Beautiful"
PERFORMER "The Abstractions"
FLAGS DCP
INDEX 01 00:00:00
FILE "08 - A Furiously Fatal Future.wav" WAVE
TRACK 08 AUDIO
TITLE "A Furiously Fatal Future"
PERFORMER "The Abstractions"
FLAGS DCP
INDEX 01 00:00:00
FILE "09 - Companions On A Journey Through A Lost Amerika.wav" WAVE
TRACK 09 AUDIO
TITLE "Companions On A Journey Through A Lost Amerika"
PERFORMER "The Abstractions"
FLAGS DCP
INDEX 01 00:00:00
FILE "10 - After The WAR.wav" WAVE
TRACK 10 AUDIO
TITLE "After The WAR"
PERFORMER "The Abstractions"
FLAGS DCP
INDEX 01 00:00:00
FILE "11 - Caress Of The Claw.wav" WAVE
TRACK 11 AUDIO
TITLE "Caress Of The Claw"
PERFORMER "The Abstractions"
FLAGS DCP
INDEX 01 00:00:00
FILE "12 - Demon Down.wav" WAVE
TRACK 12 AUDIO
TITLE "Demon Down"
PERFORMER "The Abstractions"
FLAGS DCP
INDEX 01 00:00:00
FILE "13 - Rain Of Bullets.wav" WAVE
TRACK 13 AUDIO
TITLE "Rain Of Bullets"
PERFORMER "The Abstractions"
FLAGS DCP
INDEX 01 00:00:00
FILE "14 - That Hideous Beauty.wav" WAVE
TRACK 14 AUDIO
TITLE "That Hideous Beauty"
PERFORMER "The Abstractions"
FLAGS DCP
INDEX 01 00:00:00
FILE "15 - Armageddon Under Glass.wav" WAVE
TRACK 15 AUDIO
TITLE "Armageddon Under Glass"
PERFORMER "The Abstractions"
FLAGS DCP
INDEX 01 00:00:00
FILE "16 - Psychotronix Melodramatix.wav" WAVE
TRACK 16 AUDIO
TITLE "Psychotronix Melodramatix"
PERFORMER "The Abstractions"
FLAGS DCP
INDEX 01 00:00:00
FILE "17 - But Not For Me.wav" WAVE
TRACK 17 AUDIO
TITLE "But Not For Me"
PERFORMER "The Abstractions"
FLAGS DCP
INDEX 01 00:00:00
FILE "18 - Universal fLAW.wav" WAVE
TRACK 18 AUDIO
TITLE "Universal fLAW"
PERFORMER "The Abstractions"
FLAGS DCP
INDEX 01 00:00:00
FILE "19 - No More Loans.wav" WAVE
TRACK 19 AUDIO
TITLE "No More Loans"
PERFORMER "The Abstractions"
FLAGS DCP
INDEX 01 00:00:00
FILE "20 - Peeling Back The Layers Of A Dead Foot.wav" WAVE
TRACK 20 AUDIO
TITLE "Peeling Back The Layers Of A Dead Foot"
PERFORMER "The Abstractions"
FLAGS DCP
INDEX 01 00:00:00
FILE "21 - Flow Between My Past And My Future.wav" WAVE
TRACK 21 AUDIO
TITLE "Flow Between My Past And My Future"
PERFORMER "The Abstractions"
FLAGS DCP
INDEX 01 00:00:00
FILE "22 - Heart Of Midnight.wav" WAVE
TRACK 22 AUDIO
TITLE "Heart Of Midnight"
PERFORMER "The Abstractions"
FLAGS DCP
INDEX 01 00:00:00
 
Лог проверки качества
d:\>d:\aucdtect -d/-m0 d:\zzz\*.wav
auCDtect: CD records authenticity detector, version 0.8.2
Copyright (c) 2004 Oleg Berngardt. All rights reserved.
Copyright (c) 2004 Alexander Djourik. All rights reserved.
------------------------------------------------------------
Processing file: [01. The Bitter Undiscovered Alienated (Male) Genius Club.wav]
------------------------------------------------------------
This track looks like CDDA with probability 100%
------------------------------------------------------------
Processing file: [02. The Tower.wav]
------------------------------------------------------------
This track looks like CDDA with probability 100%
------------------------------------------------------------
Processing file: [03. Cultivate The Voices In The Wilderness.wav]
------------------------------------------------------------
This track looks like CDDA with probability 100%
------------------------------------------------------------
Processing file: [04. Your Eyes Taste Like Steel.wav]
------------------------------------------------------------
This track looks like CDDA with probability 100%
------------------------------------------------------------
Processing file: [05. Lurch.wav]
------------------------------------------------------------
This track looks like CDDA with probability 100%
------------------------------------------------------------
Processing file: [06. The Thread.wav]
------------------------------------------------------------
This track looks like CDDA with probability 100%
------------------------------------------------------------
Processing file: [07. Amerika Not Beautiful.wav]
------------------------------------------------------------
This track looks like CDDA with probability 100%
------------------------------------------------------------
Processing file: [08. A Furiously Fatal Future.wav]
------------------------------------------------------------
This track looks like CDDA with probability 100%
------------------------------------------------------------
Processing file: [09. Companions On A Journey Through A Lost Amerika.wav]
------------------------------------------------------------
This track looks like CDDA with probability 100%
------------------------------------------------------------
Processing file: [10. After The WAR.wav]
------------------------------------------------------------
This track looks like CDDA with probability 100%
------------------------------------------------------------
Processing file: [11. Caress Of The Claw.wav]
------------------------------------------------------------
This track looks like CDDA with probability 100%
------------------------------------------------------------
Processing file: [12. Demon Down.wav]
------------------------------------------------------------
This track looks like CDDA with probability 100%
------------------------------------------------------------
Processing file: [13. Rain Of Bullets.wav]
------------------------------------------------------------
This track looks like CDDA with probability 100%
------------------------------------------------------------
Processing file: [14. That Hideous Beauty.wav]
------------------------------------------------------------
This track looks like CDDA with probability 99%
------------------------------------------------------------
Processing file: [15. Armageddon Under Glass.wav]
------------------------------------------------------------
This track looks like CDDA with probability 100%
------------------------------------------------------------
Processing file: [16. Psychotronix Melodramatix.wav]
------------------------------------------------------------
This track looks like CDDA with probability 100%
------------------------------------------------------------
Processing file: [17. But Not For Me.wav]
------------------------------------------------------------
This track looks like CDDA with probability 100%
------------------------------------------------------------
Processing file: [18. Universal fLAW.wav]
------------------------------------------------------------
This track looks like CDDA with probability 99%
------------------------------------------------------------
Processing file: [19. No More Loans.wav]
------------------------------------------------------------
This track looks like CDDA with probability 99%
------------------------------------------------------------
Processing file: [20. Peeling Back The Layers Of A Dead Foot.wav]
------------------------------------------------------------
This track looks like CDDA with probability 100%
------------------------------------------------------------
Processing file: [21. Flow Between My Past And My Future.wav]
------------------------------------------------------------
This track looks like CDDA with probability 100%
------------------------------------------------------------
Processing file: [22. Heart Of Midnight.wav]
------------------------------------------------------------
This track looks like CDDA with probability 99%
------------------------------------------------------------
Final Conclusion:
------------------------------------------------------------
These tracks looks like CDDA with probability 100%
Доп. информация:
 
Album Info & AMG Review
All songs by The Abstractions
Words Marjorie Sturm (1,6,19), Phillip Everett (10,12,22), Ernesto Diaz-Infante (3,9,21), George Gershwin (17)
Recorded, engineered & mastered by Ray Schaeffer at Nazmir Kelpkut Recording and Research Ranch, Richmond, California, USA 12/16/02, 2/12/03, 2/19/03
Mixed by Ray Schaeffer, Rent Romus, Ernesto Diaz-Infante, Jesse Quattro & Phillip Everett
Produced by Rent Romus, Ernesto Diaz-Infante, Jesse Quattro & Phillip Everett
Design by Tohru Kanayama
"Of course people don't want war. But after all, it's the leaders of the country who determine the policy, and it's always a simple matter to drag the people along whether it's a democracy, a fascist dictatorship, or a parliament, or a communist dictatorship. Voice or no voice, the people can always be brought to the bidding of the leaders. That is easy. All you have to do is to tell them they are being attacked, and denounce the pacifists for lack of patriotism, and exposing the country to greater danger." - Herman Goering, Reichsmarshall and Luftwaffe-Chiefat at the Nuremberg trials.
Much better is The Abstractions' follow-up to Sonic Conspiracy: more daring, more complex, more puzzling in every way. The group remains in a state of flux throughout the 22 tracks. The nucleus consists of guitarist /singer Ernesto Diaz-Infante, saxophonist Rent Romus, violinist Bob Marsh, singer/moaner/screamer Jesse Quattro, and drummer Phillip Everett replacing original member Scott R. Looney. But all these musicians are not involved in every piece, and there's plenty of extras appearing, such as singer Diana Emerson interlocking her voice with Quattro's in seven cuts, Sandor Finta doing the same in six more, along with guitarist Alwyn Quebido contributing to eight of them. Diaz-Infante, professional chameleon man, draws from all of his strings on Ars Vivende, providing field recordings, odd noises (from cassettes and records), playing guitars and violin, and singing in his undecipherable murmur. But where his eponymous solo album for Pax Recordings from a few months earlier drifted into a certain sedated post-psychedelic/outsider mood, Ars Vivende is kept very much alive by Everett (an inventive banger), Romus' scorching lines, and Quattro's many calls to arms. The music of The Abstractions, despite its level of, hem, abstraction, irradiates a strong sense of urgency. Titles like "Amerika Not Beautiful," "A Furiously Fatal Future," and "After the WAR" can only refer to the United States' war against Iraq (or "attack on Iraq," depending on which side of the fence you choose to stand). Where American experimental rock groups from the same period, like Sunburned Hand of the Man, Jackie-O Motherfucker, and No-Neck Blues Band, stretch out into long improvised jams, The Abstractions keep things short, focused, and thus all the more disturbingly brutal without having to exaggerate the level of decibels. And Ars Vivende takes their art much further than before.
 
Состав
Ernesto Diaz-Infante: vocals, lyrics, acoustic, electric & fretless guitars, guitant, violin, 4-track, turntable, ebow drone, field recordings (1-6,8,9,12,13,17,19-22)
Dina Emerson: voice, words, bells (7,8,10,11,15,16,19)
Phillip Everett: drums, autoharp, percussion (1,3,4-6,9,10,11,13,17,19,20,21,22)
Sandor Finta: voice (6,8,9,10,14,18,19)
Lance Grabmiller: laptop, processing (8,20)
Bob Marsh: cello, voice, accordion (3-6,8-10,12,13,15,17,20,21)
Jesse Quattro: vocals, words, bells (3-8,10,12-22)
Alwyn Quebido: electric guitar (4,5,12,13,17,20-22)
Rent Romus: alto & soprano sax, flute, voice, percussion, toys, CD player, Mr. Bunny, zitherod, scream dolls (1,4-6,8,10,11,13,15-17,19-22)
Stephen Ruiz: turntable sounds (20)
Any questions -> support@pro-jazz.com. По всем вопросам пишите -> support@pro-jazz.com
17:40
192
Нет комментариев. Ваш будет первым!