Вы используете незарегистрированную версию компонента "Вкладки"!

Поиск

(Avant-Garde Jazz, Free Jazz, Nine Winds) Joel Harrison (w/ Nels Cline, Alex Cline, Brad Dutz, John Holmes, Scott Amendola a.o.) - 3 + 3 = 7 - 1996, FLAC (tracks+.cue), lossless

(Avant-Garde Jazz, Free Jazz, Nine Winds) Joel Harrison (w/ Nels Cline, Alex Cline, Brad Dutz, John Holmes, Scott Amendola a.o.) - 3 + 3 = 7 - 1996, FLAC (tracks+.cue), lossless
Треклист:
Joel Harrison / 3 + 3 = 7
Жанр: Avant-Garde Jazz, Free Jazz, Nine Winds
Страна-производитель диска: US
Год издания: 1996
Издатель (лейбл): 9 Winds Records
Номер по каталогу: NWCD0187
Страна: US
Аудиокодек: FLAC (*.flac)
Тип рипа: tracks+.cue
Битрейт аудио: lossless
Продолжительность: 55:51
Источник (релизер): свой фирменный диск
Наличие сканов в содержимом раздачи:
Треклист:
1 Ratrace 5:16
2 Protest 2:29
3 Kali 6:05
4 Seven Angels 7:06
5 Broderick Crawford's Throat 4:15
6 Lovingkindness 7:35
7 Someday Earth (For Don Cherry) 9:42
8 Child's Dream 5:11
9 Cold Day In New York 4:19
10 Skin Frontier 3:15
 
Лог создания рипа
Exact Audio Copy V1.0 beta 3 from 29. August 2011
EAC extraction logfile from 28. August 2013, 0:59
Joel Harrison / 3 + 3 = 7
Used drive : PIONEER DVD-RW DVR-115D Adapter: 0 ID: 0
Read mode : Secure
Utilize accurate stream : Yes
Defeat audio cache : Yes
Make use of C2 pointers : No
Read offset correction : 48
Overread into Lead-In and Lead-Out : No
Fill up missing offset samples with silence : Yes
Delete leading and trailing silent blocks : No
Null samples used in CRC calculations : Yes
Used interface : Installed external ASPI interface
Gap handling : Appended to previous track
Used output format : User Defined Encoder
Selected bitrate : 896 kBit/s
Quality : High
Add ID3 tag : No
Command line compressor : C:\Program Files\Exact Audio Copy\FLAC\FLAC.EXE
Additional command line options : -6 -V -T "ARTIST=%artist%" -T "TITLE=%title%" -T "ALBUM=%albumtitle%" -T "DATE=%year%" -T "TRACKNUMBER=%tracknr%" -T "GENRE=%genre%" -T "COMMENT=%comment%" -T "BAND=%albuminterpret%" -T "COMPOSER=%composer%" %haslyrics%--tag-from-file=LYRICS="%lyricsfile%"%haslyrics% -T "DISCNUMBER=%cdnumber%" -T "TOTALDISCS=%totalcds%" -T "TOTALTRACKS=%numtracks%" %hascover%--picture="%coverfile%"%hascover% %source% -o %dest%
TOC of the extracted CD
Track | Start | Length | Start sector | End sector
---------------------------------------------------------
1 | 0:00.50 | 5:19.05 | 50 | 23979
2 | 5:19.55 | 2:32.35 | 23980 | 35414
3 | 7:52.15 | 6:10.35 | 35415 | 63199
4 | 14:02.50 | 7:12.00 | 63200 | 95599
5 | 21:14.50 | 4:21.00 | 95600 | 115174
6 | 25:35.50 | 7:37.00 | 115175 | 149449
7 | 33:12.50 | 9:44.00 | 149450 | 193249
8 | 42:56.50 | 5:14.00 | 193250 | 216799
9 | 48:10.50 | 4:25.00 | 216800 | 236674
10 | 52:35.50 | 3:16.40 | 236675 | 251414
Track 1
Filename D:\zzz\01 - Ratrace.wav
Pre-gap length 0:00:02.50
Peak level 99.0 %
Extraction speed 4.2 X
Track quality 99.9 %
Test CRC E6BF3589
Copy CRC E6BF3589
Accurately ripped (confidence 1) [04194DF3] (AR v2)
Copy OK
Track 2
Filename D:\zzz\02 - Protest.wav
Pre-gap length 0:00:02.12
Peak level 99.0 %
Extraction speed 4.5 X
Track quality 100.0 %
Test CRC 28950BA1
Copy CRC 28950BA1
Accurately ripped (confidence 1) [C1959BBE] (AR v2)
Copy OK
Track 3
Filename D:\zzz\03 - Kali.wav
Pre-gap length 0:00:02.10
Peak level 99.0 %
Extraction speed 5.5 X
Track quality 100.0 %
Test CRC DCD6F923
Copy CRC DCD6F923
Accurately ripped (confidence 1) [AEEC74FD] (AR v2)
Copy OK
Track 4
Filename D:\zzz\04 - Seven Angels.wav
Pre-gap length 0:00:03.67
Peak level 99.0 %
Extraction speed 6.1 X
Track quality 100.0 %
Test CRC 059E63ED
Copy CRC 059E63ED
Accurately ripped (confidence 1) [2B51A663] (AR v2)
Copy OK
Track 5
Filename D:\zzz\05 - Broderick Crawford's Throat.wav
Pre-gap length 0:00:04.35
Peak level 100.0 %
Extraction speed 6.3 X
Track quality 100.0 %
Test CRC 6C0E037C
Copy CRC 6C0E037C
Accurately ripped (confidence 1) [9B86CE15] (AR v2)
Copy OK
Track 6
Filename D:\zzz\06 - Lovingkindness.wav
Pre-gap length 0:00:05.11
Peak level 99.0 %
Extraction speed 7.1 X
Track quality 100.0 %
Test CRC D059F6D9
Copy CRC D059F6D9
Accurately ripped (confidence 1) [17362C10] (AR v2)
Copy OK
Track 7
Filename D:\zzz\07 - Someday Earth (For Don Cherry).wav
Pre-gap length 0:00:01.10
Peak level 99.6 %
Extraction speed 7.3 X
Track quality 99.9 %
Test CRC C50EF901
Copy CRC C50EF901
Accurately ripped (confidence 1) [EBAAD26B] (AR v2)
Copy OK
Track 8
Filename D:\zzz\08 - Child's Dream.wav
Pre-gap length 0:00:00.40
Peak level 99.6 %
Extraction speed 7.8 X
Track quality 100.0 %
Test CRC 5C6E9CF2
Copy CRC 5C6E9CF2
Accurately ripped (confidence 1) [EB62679D] (AR v2)
Copy OK
Track 9
Filename D:\zzz\09 - Cold Day In New York.wav
Pre-gap length 0:00:01.62
Peak level 100.0 %
Extraction speed 7.9 X
Track quality 100.0 %
Test CRC F0E2C30A
Copy CRC F0E2C30A
Accurately ripped (confidence 1) [464E408B] (AR v2)
Copy OK
Track 10
Filename D:\zzz\10 - Skin Frontier.wav
Pre-gap length 0:00:04.50
Peak level 93.8 %
Extraction speed 6.7 X
Track quality 99.9 %
Test CRC 60EB083B
Copy CRC 60EB083B
Accurately ripped (confidence 1) [BC31A166] (AR v2)
Copy OK
All tracks accurately ripped
No errors occurred
End of status report
==== Log checksum E6CB008A43703C7454D1EC8F9ACD95CE3CC9E5E6623B89801F7EEFAE92AE8D2C ====
 
Содержание индексной карты (.CUE)
REM GENRE "Avant-Garde Jazz"
REM DATE 1996
REM DISCID 990D180A
REM COMMENT "ExactAudioCopy v1.0b3"
PERFORMER "Joel Harrison"
TITLE "3 + 3 = 7"
FILE "01 - Ratrace.wav" WAVE
TRACK 01 AUDIO
TITLE "Ratrace"
PERFORMER "Joel Harrison"
PREGAP 00:00:50
INDEX 01 00:00:00
TRACK 02 AUDIO
TITLE "Protest"
PERFORMER "Joel Harrison"
INDEX 00 05:16:68
FILE "02 - Protest.wav" WAVE
INDEX 01 00:00:00
TRACK 03 AUDIO
TITLE "Kali"
PERFORMER "Joel Harrison"
INDEX 00 02:30:25
FILE "03 - Kali.wav" WAVE
INDEX 01 00:00:00
TRACK 04 AUDIO
TITLE "Seven Angels"
PERFORMER "Joel Harrison"
INDEX 00 06:06:43
FILE "04 - Seven Angels.wav" WAVE
INDEX 01 00:00:00
TRACK 05 AUDIO
TITLE "Broderick Crawford's Throat"
PERFORMER "Joel Harrison"
INDEX 00 07:07:40
FILE "05 - Broderick Crawford's Throat.wav" WAVE
INDEX 01 00:00:00
TRACK 06 AUDIO
TITLE "Lovingkindness"
PERFORMER "Joel Harrison"
INDEX 00 04:15:64
FILE "06 - Lovingkindness.wav" WAVE
INDEX 01 00:00:00
TRACK 07 AUDIO
TITLE "Someday Earth (For Don Cherry)"
PERFORMER "Joel Harrison"
INDEX 00 07:35:65
FILE "07 - Someday Earth (For Don Cherry).wav" WAVE
INDEX 01 00:00:00
TRACK 08 AUDIO
TITLE "Child's Dream"
PERFORMER "Joel Harrison"
INDEX 00 09:43:35
FILE "08 - Child's Dream.wav" WAVE
INDEX 01 00:00:00
TRACK 09 AUDIO
TITLE "Cold Day In New York"
PERFORMER "Joel Harrison"
INDEX 00 05:12:13
FILE "09 - Cold Day In New York.wav" WAVE
INDEX 01 00:00:00
TRACK 10 AUDIO
TITLE "Skin Frontier"
PERFORMER "Joel Harrison"
INDEX 00 04:20:25
FILE "10 - Skin Frontier.wav" WAVE
INDEX 01 00:00:00
 
Лог проверки качества
d:\>d:\aucdtect -d/-m0 d:\zzz\*.wav
auCDtect: CD records authenticity detector, version 0.8.2
Copyright (c) 2004 Oleg Berngardt. All rights reserved.
Copyright (c) 2004 Alexander Djourik. All rights reserved.
------------------------------------------------------------
Processing file: [01. Ratrace.wav]
------------------------------------------------------------
This track looks like CDDA with probability 100%
------------------------------------------------------------
Processing file: [02. Protest.wav]
------------------------------------------------------------
This track looks like CDDA with probability 99%
------------------------------------------------------------
Processing file: [03. Kali.wav]
------------------------------------------------------------
This track looks like CDDA with probability 100%
------------------------------------------------------------
Processing file: [04. Seven Angels.wav]
------------------------------------------------------------
This track looks like CDDA with probability 100%
------------------------------------------------------------
Processing file: [05. Broderick Crawford's Throat.wav]
------------------------------------------------------------
This track looks like CDDA with probability 100%
------------------------------------------------------------
Processing file: [06. Lovingkindness.wav]
------------------------------------------------------------
This track looks like CDDA with probability 100%
------------------------------------------------------------
Processing file: [07. Someday Earth (For Don Cherry).wav]
------------------------------------------------------------
This track looks like CDDA with probability 100%
------------------------------------------------------------
Processing file: [08. Child's Dream.wav]
------------------------------------------------------------
This track looks like CDDA with probability 100%
------------------------------------------------------------
Processing file: [09. Cold Day In New York.wav]
------------------------------------------------------------
This track looks like CDDA with probability 100%
------------------------------------------------------------
Processing file: [10. Skin Frontier.wav]
------------------------------------------------------------
This track looks like CDDA with probability 100%
------------------------------------------------------------
Final Conclusion:
------------------------------------------------------------
These tracks looks like CDDA with probability 100%
Доп. информация:
 
Important Album Info
Tracks 2 to 6, 9, 10 recorded at Stagg Studios, January 9, 1995 (LOS ANGELES ENSEMBLE - Harrison, N. Cline, Cardenas, A. Cline, Holmes, Dutz)
Tracks 1, 7, 8 recorded at Mobius Sound, January 12, 1996 (SAN FRANCISCO BAY AREA ENSEMBLE - Harrison, N. Cline, Schott, Amendola, Cronkhite, Powell)
 
Состав
Djembe, Mbira, Percussion [Frame Drum], Tabla, Udu, Percussion [Metal Crashers], Chimes, Percussion [Mixing Bowls], Congas, Timbales, Cowbell [Cowbells], Performer [Airphones] – Brad Dutz (tracks: 2 to 6, 9, 10)
Drums, Cajón, Performer [Airphones], Percussion [Pods], Bells [Indian] – John Holmes (tracks: 2 to 6, 9, 10)
Drums, Gong [Gongs], Bells, Chimes, Bells [Japanese Resting] – Alex Cline (tracks: 2 to 6, 9, 10)
Drums, Percussion [Metal Crashers], Berimbau, Wind [Duck Call], Bass Drum [Suspended], Percussion [Mixing Bowls] – Garth Powell (tracks: 1, 7, 8)
Drums, Udu [Gourd-udu], Percussion [Scrapers], Percussion [Bell Tree], Chimes, Shaker [Shakers] – Glen Cronkhite (tracks: 1, 7, 8)
Electric Guitar [Six-string] – Joel Harrison, John Schott (tracks: 1, 7, 8), Nels Cline, Steve Cardenas (tracks: 2 to 6, 9, 10)
Guitar [Baritone], Twelve-string Guitar – Nels Cline (tracks: 2 to 6, 9, 10)
Guitar [Fretless], Guitar [Prepared] – Joel Harrison (tracks: 2 to 6, 9, 10)
Musical Box – Nels Cline (tracks: 1, 7, 8)
По всем вопросам пишите личное сообщение пользователю M0p94ok.
17:40
182
Нет комментариев. Ваш будет первым!