Вы используете незарегистрированную версию компонента "Вкладки"!

Поиск

(Avant-Garde Jazz, Free Improvisation) Dave Tucker West Coast Project (w/ Ernesto Diaz-Infante, Scott R. Looney, Garth Powell) - Tenderloin - 2004, FLAC (tracks+.cue), lossless

(Avant-Garde Jazz, Free Improvisation) Dave Tucker West Coast Project (w/ Ernesto Diaz-Infante, Scott R. Looney, Garth Powell) - Tenderloin - 2004, FLAC (tracks+.cue), lossless
Треклист:
Dave Tucker West Coast Project / Tenderloin
Жанр: Avant-Garde Jazz, Free Improvisation
Страна-производитель диска: US
Год издания: 2004
Издатель (лейбл): Pax Recordings CD-R
Номер по каталогу: PR90264
Страна: UK, US
Аудиокодек: FLAC (*.flac)
Тип рипа: tracks+.cue
Битрейт аудио: lossless
Продолжительность: 67:28
Источник (релизер): свой фирменный диск
Наличие сканов в содержимом раздачи:
Треклист:
1. SoMa 8:45
2. Cow Hollow 4:27
3. Amoeba Cleaned Me Out! 4:00
4. Tenderloin 4:43
5. Tien I-lou 5:10
6. Mission Dolores 5:41
7. Castro 6:24
8. Laguna 5:25
9. Nihonmachi 5:34
10. Crooked Lombard 3:18
11. Left Luggage 3:58 (live @ Luggage Store San Francisco 22/09/2001)
12. Presidio 5:28
13. Yerba 4:29
 
Лог создания рипа
Exact Audio Copy V1.0 beta 3 from 29. August 2011
EAC extraction logfile from 28. August 2013, 23:47
Dave Tucker West Coast Project / Tenderloin
Used drive : PIONEER DVD-RW DVR-115D Adapter: 0 ID: 0
Read mode : Secure
Utilize accurate stream : Yes
Defeat audio cache : Yes
Make use of C2 pointers : No
Read offset correction : 48
Overread into Lead-In and Lead-Out : No
Fill up missing offset samples with silence : Yes
Delete leading and trailing silent blocks : No
Null samples used in CRC calculations : Yes
Used interface : Installed external ASPI interface
Gap handling : Appended to previous track
Used output format : User Defined Encoder
Selected bitrate : 896 kBit/s
Quality : High
Add ID3 tag : No
Command line compressor : C:\Program Files\Exact Audio Copy\FLAC\FLAC.EXE
Additional command line options : -6 -V -T "ARTIST=%artist%" -T "TITLE=%title%" -T "ALBUM=%albumtitle%" -T "DATE=%year%" -T "TRACKNUMBER=%tracknr%" -T "GENRE=%genre%" -T "COMMENT=%comment%" -T "BAND=%albuminterpret%" -T "COMPOSER=%composer%" %haslyrics%--tag-from-file=LYRICS="%lyricsfile%"%haslyrics% -T "DISCNUMBER=%cdnumber%" -T "TOTALDISCS=%totalcds%" -T "TOTALTRACKS=%numtracks%" %hascover%--picture="%coverfile%"%hascover% %source% -o %dest%
TOC of the extracted CD
Track | Start | Length | Start sector | End sector
---------------------------------------------------------
1 | 0:00.00 | 8:45.30 | 0 | 39404
2 | 8:45.30 | 4:27.08 | 39405 | 59437
3 | 13:12.38 | 4:00.43 | 59438 | 77480
4 | 17:13.06 | 4:43.71 | 77481 | 98776
5 | 21:57.02 | 5:10.31 | 98777 | 122057
6 | 27:07.33 | 5:41.29 | 122058 | 147661
7 | 32:48.62 | 6:24.66 | 147662 | 176527
8 | 39:13.53 | 5:25.15 | 176528 | 200917
9 | 44:38.68 | 5:34.17 | 200918 | 225984
10 | 50:13.10 | 3:18.74 | 225985 | 240908
11 | 53:32.09 | 3:58.55 | 240909 | 258813
12 | 57:30.64 | 5:28.22 | 258814 | 283435
13 | 62:59.11 | 4:29.09 | 283436 | 303619
Track 1
Filename D:\zzz\01 - SoMa.wav
Pre-gap length 0:00:02.00
Peak level 99.9 %
Extraction speed 5.2 X
Track quality 100.0 %
Test CRC 23691D0E
Copy CRC 23691D0E
Track not present in AccurateRip database
Copy OK
Track 2
Filename D:\zzz\02 - Cow Hallow.wav
Peak level 67.7 %
Extraction speed 5.4 X
Track quality 100.0 %
Test CRC ADC21703
Copy CRC ADC21703
Track not present in AccurateRip database
Copy OK
Track 3
Filename D:\zzz\03 - Amoeba Cleaned Me Out!.wav
Peak level 98.8 %
Extraction speed 5.7 X
Track quality 100.0 %
Test CRC 220EB4DE
Copy CRC 220EB4DE
Track not present in AccurateRip database
Copy OK
Track 4
Filename D:\zzz\04 - Tenderloin.wav
Peak level 98.8 %
Extraction speed 6.1 X
Track quality 100.0 %
Test CRC 5836AC9A
Copy CRC 5836AC9A
Track not present in AccurateRip database
Copy OK
Track 5
Filename D:\zzz\05 - Tien I-Iou.wav
Peak level 98.8 %
Extraction speed 5.9 X
Track quality 99.9 %
Test CRC ACBC649C
Copy CRC ACBC649C
Track not present in AccurateRip database
Copy OK
Track 6
Filename D:\zzz\06 - Mission Dolores.wav
Peak level 98.8 %
Extraction speed 6.3 X
Track quality 99.9 %
Test CRC E1D2F249
Copy CRC E1D2F249
Track not present in AccurateRip database
Copy OK
Track 7
Filename D:\zzz\07 - Castro.wav
Peak level 98.8 %
Extraction speed 7.4 X
Track quality 100.0 %
Test CRC 520A4AB8
Copy CRC 520A4AB8
Track not present in AccurateRip database
Copy OK
Track 8
Filename D:\zzz\08 - Laguna.wav
Peak level 31.3 %
Extraction speed 7.5 X
Track quality 100.0 %
Test CRC 6372871C
Copy CRC 6372871C
Track not present in AccurateRip database
Copy OK
Track 9
Filename D:\zzz\09 - Nihonmachi.wav
Peak level 98.8 %
Extraction speed 7.8 X
Track quality 100.0 %
Test CRC FDB41A1D
Copy CRC FDB41A1D
Track not present in AccurateRip database
Copy OK
Track 10
Filename D:\zzz\10 - Crooked Lombard.wav
Peak level 95.9 %
Extraction speed 7.5 X
Track quality 100.0 %
Test CRC D62B915C
Copy CRC D62B915C
Track not present in AccurateRip database
Copy OK
Track 11
Filename D:\zzz\11 - Left Luggage.wav
Peak level 47.9 %
Extraction speed 7.0 X
Track quality 99.9 %
Test CRC 7AA52A3E
Copy CRC 7AA52A3E
Track not present in AccurateRip database
Copy OK
Track 12
Filename D:\zzz\12 - Presidio.wav
Peak level 98.8 %
Extraction speed 8.3 X
Track quality 100.0 %
Test CRC BBFDE188
Copy CRC BBFDE188
Track not present in AccurateRip database
Copy OK
Track 13
Filename D:\zzz\13 - Yerba.wav
Peak level 98.8 %
Extraction speed 8.4 X
Track quality 100.0 %
Test CRC 82340391
Copy CRC 82340391
Track not present in AccurateRip database
Copy OK
None of the tracks are present in the AccurateRip database
No errors occurred
End of status report
==== Log checksum C01021C221A14783FD24E3E999429342AEA30A1E61717013C1AE89686BA413AE ====
 
Содержание индексной карты (.CUE)
REM GENRE "Free Improvisation"
REM DATE 2004
REM DISCID B10FD00D
REM COMMENT "ExactAudioCopy v1.0b3"
PERFORMER "Dave Tucker West Coast Project"
TITLE "Tenderloin"
FILE "01 - SoMa.wav" WAVE
TRACK 01 AUDIO
TITLE "SoMa"
PERFORMER "Dave Tucker West Coast Project"
INDEX 01 00:00:00
FILE "02 - Cow Hallow.wav" WAVE
TRACK 02 AUDIO
TITLE "Cow Hallow"
PERFORMER "Dave Tucker West Coast Project"
INDEX 01 00:00:00
FILE "03 - Amoeba Cleaned Me Out!.wav" WAVE
TRACK 03 AUDIO
TITLE "Amoeba Cleaned Me Out!"
PERFORMER "Dave Tucker West Coast Project"
INDEX 01 00:00:00
FILE "04 - Tenderloin.wav" WAVE
TRACK 04 AUDIO
TITLE "Tenderloin"
PERFORMER "Dave Tucker West Coast Project"
INDEX 01 00:00:00
FILE "05 - Tien I-Iou.wav" WAVE
TRACK 05 AUDIO
TITLE "Tien I-Iou"
PERFORMER "Dave Tucker West Coast Project"
INDEX 01 00:00:00
FILE "06 - Mission Dolores.wav" WAVE
TRACK 06 AUDIO
TITLE "Mission Dolores"
PERFORMER "Dave Tucker West Coast Project"
INDEX 01 00:00:00
FILE "07 - Castro.wav" WAVE
TRACK 07 AUDIO
TITLE "Castro"
PERFORMER "Dave Tucker West Coast Project"
INDEX 01 00:00:00
FILE "08 - Laguna.wav" WAVE
TRACK 08 AUDIO
TITLE "Laguna"
PERFORMER "Dave Tucker West Coast Project"
INDEX 01 00:00:00
FILE "09 - Nihonmachi.wav" WAVE
TRACK 09 AUDIO
TITLE "Nihonmachi"
PERFORMER "Dave Tucker West Coast Project"
INDEX 01 00:00:00
FILE "10 - Crooked Lombard.wav" WAVE
TRACK 10 AUDIO
TITLE "Crooked Lombard"
PERFORMER "Dave Tucker West Coast Project"
INDEX 01 00:00:00
FILE "11 - Left Luggage.wav" WAVE
TRACK 11 AUDIO
TITLE "Left Luggage"
PERFORMER "Dave Tucker West Coast Project"
INDEX 01 00:00:00
FILE "12 - Presidio.wav" WAVE
TRACK 12 AUDIO
TITLE "Presidio"
PERFORMER "Dave Tucker West Coast Project"
INDEX 01 00:00:00
FILE "13 - Yerba.wav" WAVE
TRACK 13 AUDIO
TITLE "Yerba"
PERFORMER "Dave Tucker West Coast Project"
INDEX 01 00:00:00
 
Лог проверки качества
d:\>d:\aucdtect -d/-m0 d:\zzz\*.wav
auCDtect: CD records authenticity detector, version 0.8.2
Copyright (c) 2004 Oleg Berngardt. All rights reserved.
Copyright (c) 2004 Alexander Djourik. All rights reserved.
------------------------------------------------------------
Processing file: [01. SoMa.wav]
------------------------------------------------------------
This track looks like CDDA with probability 100%
------------------------------------------------------------
Processing file: [02. Cow Hallow.wav]
------------------------------------------------------------
This track looks like CDDA with probability 99%
------------------------------------------------------------
Processing file: [03. Amoeba Cleaned Me Out!.wav]
------------------------------------------------------------
This track looks like CDDA with probability 100%
------------------------------------------------------------
Processing file: [04. Tenderloin.wav]
------------------------------------------------------------
This track looks like CDDA with probability 100%
------------------------------------------------------------
Processing file: [05. Tien I-Iou.wav]
------------------------------------------------------------
This track looks like CDDA with probability 100%
------------------------------------------------------------
Processing file: [06. Mission Dolores.wav]
------------------------------------------------------------
This track looks like CDDA with probability 100%
------------------------------------------------------------
Processing file: [07. Castro.wav]
------------------------------------------------------------
This track looks like CDDA with probability 100%
------------------------------------------------------------
Processing file: [08. Laguna.wav]
------------------------------------------------------------
This track looks like CDDA with probability 43%
------------------------------------------------------------
Processing file: [09. Nihonmachi.wav]
------------------------------------------------------------
This track looks like CDDA with probability 100%
------------------------------------------------------------
Processing file: [10. Crooked Lombard.wav]
------------------------------------------------------------
This track looks like CDDA with probability 100%
------------------------------------------------------------
Processing file: [11. Left Luggage.wav]
------------------------------------------------------------
This track looks like CDDA with probability 100%
------------------------------------------------------------
Processing file: [12. Presidio.wav]
------------------------------------------------------------
This track looks like CDDA with probability 99%
------------------------------------------------------------
Processing file: [13. Yerba.wav]
------------------------------------------------------------
This track looks like CDDA with probability 100%
------------------------------------------------------------
Final Conclusion:
------------------------------------------------------------
These tracks looks like CDDA with probability 100%
Доп. информация:
 
Album Info & Aural Innovations Review
Recorded & engineered by Scott R. Looney @ 1502 Studios, Oakland, California USA August 2001
Produced by Dave Tucker & Ernesto Diaz-Infante for PAX Recordings
I'd never heard of Dave Tucker before but was interested to note on the Pax web site that he was the guitarist for The Fall during 1980-81, as well as working with the London Improvisers' Orchestra and The School of Velocity with Evan Parker. In addition to Tucker on guitar and electronics, the musicians on Tenderloin include Ernesto Diaz-Infante on acoustic guitar, Danielle DeGruttola on cello, Damon Smith on double bass, Scott R. Looney on real-time laptop processing, and Garth Powell on drums and percussion.
The CD opens with "SoMa", a combination of small ensemble orchestration, rock elements and freaky effects. The long drawn out cello lines create a somber mood, while the guitars, bass and percussion perform center ring circus acrobatics and the electronics ricochet dangerously about. The music is firmly in the avant-garde free-improv realm. But that said... this track, and others like it, really rock out. Ditto for "Amoeba Cleaned Me Out!", an intensely passionate avant-jazz and rock piece, embellished by some searing acidic guitar lines. All musicians are in high energy mode, though Powell really shines on the drums. There's an edge-of-your-seat quality on many of these tunes where the musicians transition easily between thrashing chaotic frenzy and tension laced calm. Some of my favorite moments on the album are when the cello is playing slow, heart stirring lines while the rest of the band is jamming away speedily. Yet even during the wildest jams every detail of each instruments contribution can be detected. "Mission Dolores" is a bit different, with the guitar sounding like a psychedelic Robert Fripp. Among the calmer tracks, "Laguna" is probably my favorite, being something like a spaced out avant-garde soundtrack to a 1960's William Castle horror flick. And I dig the searing noise-psych guitars mixed with a sort of Univers Zero styled chamber vibe on "Left Luggage". Overall this is a hot and varied set that will delight free-improv devotees who dig a ballsy, high energy avant-rock and jazz edge. Recommended.
 
Состав
Dave Tucker: electric guitar & electronics
Ernesto Diaz-Infante: amplified acoustic guitar
Danielle DeGruttola: cello, electric cello on 11
Damon Smith: double bass
Scott R. Looney: real-time laptop processing except 11
Garth Powell: drums, percussion & idiophone
Any questions -> support@pro-jazz.com. По всем вопросам пишите -> support@pro-jazz.com
17:41
265
Нет комментариев. Ваш будет первым!