Вы используете незарегистрированную версию компонента "Вкладки"!

Поиск

(Free Improvisation, Delmark Records) Kahil El'Zabar / Billy Bang - Spirits Entering - 2001, FLAC (tracks+.cue), lossless

(Free Improvisation, Delmark Records) Kahil El'Zabar / Billy Bang - Spirits Entering - 2001, FLAC (tracks+.cue), lossless
Треклист:
Kahil El'Zabar / Billy Bang – Spirits Entering
Жанр: Free Improvisation, Delmark Records
Страна-производитель диска: U.S.A.
Год издания: 2001
Издатель (лейбл): Delmark Records
Номер по каталогу: DE-533
Аудиокодек: FLAC (*.flac)
Тип рипа: tracks+.cue
Битрейт аудио: lossless
Продолжительность: 59:49
Источник (релизер): Max Monteiro
Наличие сканов в содержимом раздачи: да
Треклист:
1. Spirits Entering (Billy Bang) 9:09
2. 2 Was Now 4:15
3. Sweet Irene (Billy Bang) 6:36
4. Love Outside of Dreams 7:35
5. The Dream Merchant 5:10
6. Song of Myself 7:40
7. The Ituri Fantasy 4:34
8. Old Time Religion 8:38
9. Golden Sea 6:12
All compositions by Kahil El'Zabar except where indicated.
Recorded at Riverstudio, Chicago on May 24 & 25, 1998.
Billy Bang – Violin
Kahil El’Zabar – Drums, Thumb Piano, Birimbau, Percussion
 
Лог создания рипа
Exact Audio Copy V1.0 beta 3 from 29. August 2011
EAC extraction logfile from 31. August 2013, 16:59
Kahil El'Zabar / Billy Bang / Spirits Entering
Used drive : SlimtypeeNAU508 5 Adapter: 1 ID: 0
Read mode : Secure
Utilize accurate stream : Yes
Defeat audio cache : Yes
Make use of C2 pointers : No
Read offset correction : 6
Overread into Lead-In and Lead-Out : No
Fill up missing offset samples with silence : Yes
Delete leading and trailing silent blocks : No
Null samples used in CRC calculations : Yes
Used interface : Native Win32 interface for Win NT & 2000
Gap handling : Appended to previous track
Used output format : User Defined Encoder
Selected bitrate : 768 kBit/s
Quality : High
Add ID3 tag : No
Command line compressor : C:\Program Files (x86)\Exact Audio Copy\Flac\flac.exe
Additional command line options : -8 -V -T "ARTIST=%artist%" -T "TITLE=%title%" -T "ALBUM=%albumtitle%" -T "DATE=%year%" -T "TRACKNUMBER=%tracknr%" -T "GENRE=%genre%" -T "PERFORMER=%albuminterpret%" -T "COMPOSER=%composer%" %haslyrics%--tag-from-file=LYRICS="%lyricsfile%"%haslyrics% -T "ALBUMARTIST=%albumartist%" -T "DISCNUMBER=%cdnumber%" -T "TOTALDISCS=%totalcds%" -T "TOTALTRACKS=%numtracks%" -T "COMMENT=%comment%" %source% -o %dest%
TOC of the extracted CD
Track | Start | Length | Start sector | End sector
---------------------------------------------------------
1 | 0:00.00 | 9:09.17 | 0 | 41191
2 | 9:09.17 | 4:14.43 | 41192 | 60284
3 | 13:23.60 | 6:36.05 | 60285 | 89989
4 | 19:59.65 | 7:35.10 | 89990 | 124124
5 | 27:35.00 | 5:10.12 | 124125 | 147386
6 | 32:45.12 | 7:39.38 | 147387 | 181849
7 | 40:24.50 | 4:34.30 | 181850 | 202429
8 | 44:59.05 | 8:38.10 | 202430 | 241289
9 | 53:37.15 | 6:11.47 | 241290 | 269161
Track 1
Filename C:\EAC rips\01 - Spirits Entering.wav
Pre-gap length 0:00:02.00
Peak level 100.0 %
Extraction speed 2.5 X
Track quality 100.0 %
Test CRC 8FAB59D7
Copy CRC 8FAB59D7
Accurately ripped (confidence 3) [08C9936D] (AR v1)
Copy OK
Track 2
Filename C:\EAC rips\02 - 2 Was Now.wav
Pre-gap length 0:00:02.37
Peak level 99.5 %
Extraction speed 2.7 X
Track quality 100.0 %
Test CRC 09B6BF66
Copy CRC 09B6BF66
Accurately ripped (confidence 3) [8AD8D6C1] (AR v1)
Copy OK
Track 3
Filename C:\EAC rips\03 - Sweet Irene.wav
Pre-gap length 0:00:02.23
Peak level 99.6 %
Extraction speed 2.7 X
Track quality 99.9 %
Test CRC DDD2A5AB
Copy CRC DDD2A5AB
Accurately ripped (confidence 3) [497BEA97] (AR v1)
Copy OK
Track 4
Filename C:\EAC rips\04 - Love Outside of Dreams.wav
Pre-gap length 0:00:02.65
Peak level 100.0 %
Extraction speed 3.0 X
Track quality 99.9 %
Test CRC 47032EB9
Copy CRC 47032EB9
Accurately ripped (confidence 3) [B0FF4E5B] (AR v1)
Copy OK
Track 5
Filename C:\EAC rips\05 - The Dream Merchant.wav
Pre-gap length 0:00:02.18
Peak level 99.6 %
Extraction speed 3.5 X
Track quality 100.0 %
Test CRC EA0E1A10
Copy CRC EA0E1A10
Accurately ripped (confidence 3) [D2AD4BC8] (AR v1)
Copy OK
Track 6
Filename C:\EAC rips\06 - Song of Myself.wav
Pre-gap length 0:00:03.27
Peak level 65.4 %
Extraction speed 3.9 X
Track quality 100.0 %
Test CRC EE917C7D
Copy CRC EE917C7D
Accurately ripped (confidence 3) [1458B32D] (AR v1)
Copy OK
Track 7
Filename C:\EAC rips\07 - The Ituri Fantasy.wav
Pre-gap length 0:00:02.55
Peak level 95.7 %
Extraction speed 3.9 X
Track quality 100.0 %
Test CRC D0168BA7
Copy CRC D0168BA7
Accurately ripped (confidence 3) [FF278F33] (AR v1)
Copy OK
Track 8
Filename C:\EAC rips\08 - Old Time Religion.wav
Pre-gap length 0:00:03.38
Peak level 89.9 %
Extraction speed 4.3 X
Track quality 100.0 %
Test CRC 92243A96
Copy CRC 92243A96
Accurately ripped (confidence 3) [4BC5C2AA] (AR v1)
Copy OK
Track 9
Filename C:\EAC rips\09 - Golden Sea.wav
Pre-gap length 0:00:02.10
Peak level 64.5 %
Extraction speed 4.4 X
Track quality 100.0 %
Test CRC 78134B34
Copy CRC 78134B34
Accurately ripped (confidence 3) [8345D8C5] (AR v1)
Copy OK
All tracks accurately ripped
No errors occurred
End of status report
---- CUETools DB Plugin V2.1.4
[CTDB TOCID: 05KKRCEgurOotqMlegH1iCKNsS4-] found
Submit result: 05KKRCEgurOotqMlegH1iCKNsS4- has been confirmed
Track | CTDB Status
1 | (1/1) Accurately ripped
2 | (1/1) Accurately ripped
3 | (1/1) Accurately ripped
4 | (1/1) Accurately ripped
5 | (1/1) Accurately ripped
6 | (1/1) Accurately ripped
7 | (1/1) Accurately ripped
8 | (1/1) Accurately ripped
9 | (1/1) Accurately ripped
==== Log checksum 7FCD65868026FB96E83657906F93F96125D5A6EDCE1E1D1C7D1AE32982259E4F ====
 
Содержание индексной карты (.CUE)
REM GENRE Jazz
REM DATE 2001
REM DISCID 6F0E0409
REM COMMENT "ExactAudioCopy v1.0b3"
PERFORMER "Kahil El'Zabar / Billy Bang"
TITLE "Spirits Entering"
FILE "01 - Spirits Entering.wav" WAVE
TRACK 01 AUDIO
TITLE "Spirits Entering"
PERFORMER "Kahil El'Zabar / Billy Bang"
INDEX 01 00:00:00
TRACK 02 AUDIO
TITLE "2 Was Now"
PERFORMER "Kahil El'Zabar / Billy Bang"
INDEX 00 09:06:55
FILE "02 - 2 Was Now.wav" WAVE
INDEX 01 00:00:00
TRACK 03 AUDIO
TITLE "Sweet Irene"
PERFORMER "Kahil El'Zabar / Billy Bang"
INDEX 00 04:12:20
FILE "03 - Sweet Irene.wav" WAVE
INDEX 01 00:00:00
TRACK 04 AUDIO
TITLE "Love Outside of Dreams"
PERFORMER "Kahil El'Zabar / Billy Bang"
INDEX 00 06:33:15
FILE "04 - Love Outside of Dreams.wav" WAVE
INDEX 01 00:00:00
TRACK 05 AUDIO
TITLE "The Dream Merchant"
PERFORMER "Kahil El'Zabar / Billy Bang"
INDEX 00 07:32:67
FILE "05 - The Dream Merchant.wav" WAVE
INDEX 01 00:00:00
TRACK 06 AUDIO
TITLE "Song of Myself"
PERFORMER "Kahil El'Zabar / Billy Bang"
INDEX 00 05:06:60
FILE "06 - Song of Myself.wav" WAVE
INDEX 01 00:00:00
TRACK 07 AUDIO
TITLE "The Ituri Fantasy"
PERFORMER "Kahil El'Zabar / Billy Bang"
INDEX 00 07:36:58
FILE "07 - The Ituri Fantasy.wav" WAVE
INDEX 01 00:00:00
TRACK 08 AUDIO
TITLE "Old Time Religion"
PERFORMER "Kahil El'Zabar / Billy Bang"
INDEX 00 04:30:67
FILE "08 - Old Time Religion.wav" WAVE
INDEX 01 00:00:00
TRACK 09 AUDIO
TITLE "Golden Sea"
PERFORMER "Kahil El'Zabar / Billy Bang"
INDEX 00 08:36:00
FILE "09 - Golden Sea.wav" WAVE
INDEX 01 00:00:00
Any questions -> support@pro-jazz.com. По всем вопросам пишите -> support@pro-jazz.com
17:42
148
Нет комментариев. Ваш будет первым!