Вы используете незарегистрированную версию компонента "Вкладки"!

Поиск

(Free Jazz, Ethnic Jazz, Big Band) Adam Rudolph (w/ Brad Dutz, Emily Hay, Harris Eisenstadt, Sara Schoenbeck a.o.) - Go: Organic Orchestra: 1 - 2002, FLAC (tracks+.cue), lossless

(Free Jazz, Ethnic Jazz, Big Band) Adam Rudolph (w/ Brad Dutz, Emily Hay, Harris Eisenstadt, Sara Schoenbeck a.o.) - Go: Organic Orchestra: 1 - 2002, FLAC (tracks+.cue), lossless
Треклист:
Adam Rudolph / Go: Organic Orchestra: 1
Жанр: Free Jazz, Ethnic Jazz, Big Band
Страна-производитель диска: US
Год издания: 2002
Издатель (лейбл): Meta Records
Номер по каталогу: META 006
Страна: US
Аудиокодек: FLAC (*.flac)
Тип рипа: tracks+.cue
Битрейт аудио: lossless
Продолжительность: 70:26
Источник (релизер): свой фирменный диск
Наличие сканов в содержимом раздачи:
Треклист:
1 Through 5 : Karuna (Compassion) (22:31)
1 Breath 6:12
2 Intent 4:37
3 Reflection 3:01
4 Continuance 2:28
5 Affirmation 6:13
6 Circumambulation 13:22
7 Blue Valley 11:25
8 Through 10 : Rivers (14:01)
8 Lapis 4:03
9 Amber 4:27
10 Glass 5:31
11 Nine Moons 2:51
12 Palms That Flicker 6:11
 
Лог создания рипа
Exact Audio Copy V1.0 beta 3 from 29. August 2011
EAC extraction logfile from 25. August 2013, 14:53
Adam Rudolph / Go: Organic Orchestra: 1
Used drive : PIONEER DVD-RW DVR-115D Adapter: 0 ID: 0
Read mode : Secure
Utilize accurate stream : Yes
Defeat audio cache : Yes
Make use of C2 pointers : No
Read offset correction : 48
Overread into Lead-In and Lead-Out : No
Fill up missing offset samples with silence : Yes
Delete leading and trailing silent blocks : No
Null samples used in CRC calculations : Yes
Used interface : Installed external ASPI interface
Gap handling : Appended to previous track
Used output format : User Defined Encoder
Selected bitrate : 896 kBit/s
Quality : High
Add ID3 tag : No
Command line compressor : C:\Program Files\Exact Audio Copy\FLAC\FLAC.EXE
Additional command line options : -6 -V -T "ARTIST=%artist%" -T "TITLE=%title%" -T "ALBUM=%albumtitle%" -T "DATE=%year%" -T "TRACKNUMBER=%tracknr%" -T "GENRE=%genre%" -T "COMMENT=%comment%" -T "BAND=%albuminterpret%" -T "COMPOSER=%composer%" %haslyrics%--tag-from-file=LYRICS="%lyricsfile%"%haslyrics% -T "DISCNUMBER=%cdnumber%" -T "TOTALDISCS=%totalcds%" -T "TOTALTRACKS=%numtracks%" %hascover%--picture="%coverfile%"%hascover% %source% -o %dest%
TOC of the extracted CD
Track | Start | Length | Start sector | End sector
---------------------------------------------------------
1 | 0:00.00 | 6:12.01 | 0 | 27900
2 | 6:12.01 | 4:37.52 | 27901 | 48727
3 | 10:49.53 | 3:01.61 | 48728 | 62363
4 | 13:51.39 | 2:28.13 | 62364 | 73476
5 | 16:19.52 | 6:13.13 | 73477 | 101464
6 | 22:32.65 | 13:22.36 | 101465 | 161650
7 | 35:55.26 | 11:25.10 | 161651 | 213035
8 | 47:20.36 | 4:03.74 | 213036 | 231334
9 | 51:24.35 | 4:27.70 | 231335 | 251429
10 | 55:52.30 | 5:31.19 | 251430 | 276273
11 | 61:23.49 | 2:51.34 | 276274 | 289132
12 | 64:15.08 | 6:11.08 | 289133 | 316965
Track 1
Filename D:\zzz\01 - Breath.wav
Pre-gap length 0:00:02.00
Peak level 84.9 %
Extraction speed 5.0 X
Track quality 100.0 %
Test CRC 76ADBF7C
Copy CRC 76ADBF7C
Accurately ripped (confidence 1) [CD7E42FF] (AR v1)
Copy OK
Track 2
Filename D:\zzz\02 - Intent.wav
Peak level 99.9 %
Extraction speed 5.4 X
Track quality 100.0 %
Test CRC CBFA203E
Copy CRC CBFA203E
Accurately ripped (confidence 1) [1A7A0459] (AR v1)
Copy OK
Track 3
Filename D:\zzz\03 - Reflection.wav
Peak level 86.1 %
Extraction speed 5.4 X
Track quality 100.0 %
Test CRC E8AD8E9F
Copy CRC E8AD8E9F
Accurately ripped (confidence 1) [FBCB34B2] (AR v1)
Copy OK
Track 4
Filename D:\zzz\04 - Continuance.wav
Peak level 99.9 %
Extraction speed 5.4 X
Track quality 100.0 %
Test CRC 111D2338
Copy CRC 111D2338
Accurately ripped (confidence 1) [0B87FA52] (AR v1)
Copy OK
Track 5
Filename D:\zzz\05 - Affirmation.wav
Peak level 99.9 %
Extraction speed 6.0 X
Track quality 99.9 %
Test CRC 90D2C921
Copy CRC 90D2C921
Accurately ripped (confidence 1) [D7FA5909] (AR v1)
Copy OK
Track 6
Filename D:\zzz\06 - Circumambulation.wav
Pre-gap length 0:00:04.00
Peak level 100.0 %
Extraction speed 7.5 X
Track quality 100.0 %
Test CRC 86F9441A
Copy CRC 86F9441A
Accurately ripped (confidence 1) [B50005ED] (AR v1)
Copy OK
Track 7
Filename D:\zzz\07 - Blue Valley.wav
Pre-gap length 0:00:02.00
Peak level 100.0 %
Extraction speed 8.3 X
Track quality 100.0 %
Test CRC 91F5893A
Copy CRC 91F5893A
Accurately ripped (confidence 1) [10E44553] (AR v1)
Copy OK
Track 8
Filename D:\zzz\08 - Lapis.wav
Pre-gap length 0:00:04.00
Peak level 76.0 %
Extraction speed 7.1 X
Track quality 99.9 %
Test CRC 41976498
Copy CRC 41976498
Accurately ripped (confidence 1) [9995C30F] (AR v1)
Copy OK
Track 9
Filename D:\zzz\09 - Amber.wav
Peak level 100.0 %
Extraction speed 7.5 X
Track quality 99.9 %
Test CRC AF06D1F0
Copy CRC AF06D1F0
Accurately ripped (confidence 1) [2BA5EED3] (AR v1)
Copy OK
Track 10
Filename D:\zzz\10 - Glass.wav
Peak level 100.0 %
Extraction speed 8.8 X
Track quality 100.0 %
Test CRC D0A3326A
Copy CRC D0A3326A
Accurately ripped (confidence 1) [59F7E0FF] (AR v1)
Copy OK
Track 11
Filename D:\zzz\11 - Nine Moons.wav
Pre-gap length 0:00:04.00
Peak level 100.0 %
Extraction speed 8.2 X
Track quality 100.0 %
Test CRC 8ADAA11A
Copy CRC 8ADAA11A
Accurately ripped (confidence 1) [6A503866] (AR v1)
Copy OK
Track 12
Filename D:\zzz\12 - Palms That Flicker.wav
Pre-gap length 0:00:02.00
Peak level 100.0 %
Extraction speed 9.3 X
Track quality 100.0 %
Test CRC 613C1A6A
Copy CRC 613C1A6A
Accurately ripped (confidence 1) [F2F62C55] (AR v1)
Copy OK
All tracks accurately ripped
No errors occurred
End of status report
==== Log checksum 46984562CBA85E128C296220EF329A293A6AA1A13A3B9FC16E578A92CBA16EBE ====
 
Содержание индексной карты (.CUE)
REM GENRE Jazz
REM DATE 2002
REM DISCID B510820C
REM COMMENT "ExactAudioCopy v1.0b3"
PERFORMER "Adam Rudolph"
TITLE "Go: Organic Orchestra: 1"
FILE "01 - Breath.wav" WAVE
TRACK 01 AUDIO
TITLE "Breath"
PERFORMER "Adam Rudolph"
INDEX 01 00:00:00
FILE "02 - Intent.wav" WAVE
TRACK 02 AUDIO
TITLE "Intent"
PERFORMER "Adam Rudolph"
INDEX 01 00:00:00
FILE "03 - Reflection.wav" WAVE
TRACK 03 AUDIO
TITLE "Reflection"
PERFORMER "Adam Rudolph"
INDEX 01 00:00:00
FILE "04 - Continuance.wav" WAVE
TRACK 04 AUDIO
TITLE "Continuance"
PERFORMER "Adam Rudolph"
INDEX 01 00:00:00
FILE "05 - Affirmation.wav" WAVE
TRACK 05 AUDIO
TITLE "Affirmation"
PERFORMER "Adam Rudolph"
INDEX 01 00:00:00
TRACK 06 AUDIO
TITLE "Circumambulation"
PERFORMER "Adam Rudolph"
INDEX 00 06:09:13
FILE "06 - Circumambulation.wav" WAVE
INDEX 01 00:00:00
TRACK 07 AUDIO
TITLE "Blue Valley"
PERFORMER "Adam Rudolph"
INDEX 00 13:20:36
FILE "07 - Blue Valley.wav" WAVE
INDEX 01 00:00:00
TRACK 08 AUDIO
TITLE "Lapis"
PERFORMER "Adam Rudolph"
INDEX 00 11:21:10
FILE "08 - Lapis.wav" WAVE
INDEX 01 00:00:00
FILE "09 - Amber.wav" WAVE
TRACK 09 AUDIO
TITLE "Amber"
PERFORMER "Adam Rudolph"
INDEX 01 00:00:00
FILE "10 - Glass.wav" WAVE
TRACK 10 AUDIO
TITLE "Glass"
PERFORMER "Adam Rudolph"
INDEX 01 00:00:00
TRACK 11 AUDIO
TITLE "Nine Moons"
PERFORMER "Adam Rudolph"
INDEX 00 05:27:19
FILE "11 - Nine Moons.wav" WAVE
INDEX 01 00:00:00
TRACK 12 AUDIO
TITLE "Palms That Flicker"
PERFORMER "Adam Rudolph"
INDEX 00 02:49:34
FILE "12 - Palms That Flicker.wav" WAVE
INDEX 01 00:00:00
 
Лог проверки качества
d:\>d:\aucdtect -d/-m0 d:\zzz\*.wav
auCDtect: CD records authenticity detector, version 0.8.2
Copyright (c) 2004 Oleg Berngardt. All rights reserved.
Copyright (c) 2004 Alexander Djourik. All rights reserved.
------------------------------------------------------------
Processing file: [01. Breath.wav]
------------------------------------------------------------
This track looks like CDDA with probability 100%
------------------------------------------------------------
Processing file: [02. Intent.wav]
------------------------------------------------------------
This track looks like CDDA with probability 100%
------------------------------------------------------------
Processing file: [03. Reflection.wav]
------------------------------------------------------------
This track looks like CDDA with probability 100%
------------------------------------------------------------
Processing file: [04. Continuance.wav]
------------------------------------------------------------
This track looks like CDDA with probability 100%
------------------------------------------------------------
Processing file: [05. Affirmation.wav]
------------------------------------------------------------
This track looks like CDDA with probability 100%
------------------------------------------------------------
Processing file: [06. Circumambulation.wav]
------------------------------------------------------------
This track looks like CDDA with probability 99%
------------------------------------------------------------
Processing file: [07. Blue Valley.wav]
------------------------------------------------------------
This track looks like CDDA with probability 100%
------------------------------------------------------------
Processing file: [08. Lapis.wav]
------------------------------------------------------------
This track looks like CDDA with probability 100%
------------------------------------------------------------
Processing file: [09. Amber.wav]
------------------------------------------------------------
This track looks like CDDA with probability 100%
------------------------------------------------------------
Processing file: [10. Glass.wav]
------------------------------------------------------------
This track looks like CDDA with probability 100%
------------------------------------------------------------
Processing file: [11. Nine Moons.wav]
------------------------------------------------------------
This track looks like CDDA with probability 100%
------------------------------------------------------------
Processing file: [12. Palms That Flicker.wav]
------------------------------------------------------------
This track looks like CDDA with probability 99%
------------------------------------------------------------
Final Conclusion:
------------------------------------------------------------
These tracks looks like CDDA with probability 100%
Доп. информация:
 
Album Info & Review
Recorded live in concert friday November 2, 2001 at Electric Lodge, Venice, California.
".... something great was transpiring. .... a startling and involving development in roots music, with more to follow." - Greg Burk, LA WEEKLY May 10 - 16, 2002
 
Состав
Composed By, Producer, Conductor, Drums, Percussion – Adam Rudolph
Drums, Percussion – Allakoi Peete, Andres Renteria, Brad Dutz, Danny Frankel, Davey Chegwidden, David Shaffer, Harris Eisenstadt, Marwan Mogrobi, Miles Shrewsbery, Randy Gloss
Flute, Woodwind – Ben Wendel, Chris Heenan, Cory Wright, David Philipson, Ellen Burr, Emily Hay, Gustavo Bulgach, Joshua Natural Sounds, Matt Zebley, Paul Sherman, Ralph Jones, Sara Schoenbeck, Travis Just
Vocals – Dwight Trible
По всем вопросам пишите личное сообщение пользователю M0p94ok.
17:39
342
Нет комментариев. Ваш будет первым!