Вы используете незарегистрированную версию компонента "Вкладки"!

Поиск

(avant-garde) Matthew Shipp, William Parker - Zo 1997, FLAC (tracks+.cue), lossless

(avant-garde) Matthew Shipp, William Parker - Zo 1997, FLAC (tracks+.cue), lossless
Треклист:

Matthew Shipp, William Parker - Zo 1997 /
Жанр: avant-garde
Год издания диска: 1997
Аудиокодек: FLAC (*.flac)
Тип рипа: tracks+.cue
Битрейт аудио: lossless
Продолжительность: 49`56
Источник (релизер): what.cd
Наличие сканов в содержимом раздачи: нет
William Parker (bass), Matthew Shipp (piano),
1. Zo #1
2. Summertime
3. Zo #2
4. Zo #3
 
Лог создания рипа
Exact Audio Copy V0.99 prebeta 5 from 4. May 2009
EAC extraction logfile from 4. March 2011, 8:33
Matthew Shipp Duo with William Parker / Zo
Used drive : SAMSUNG CDRW/DVD SM-308B Adapter: 0 ID: 0
Read mode : Secure
Utilize accurate stream : Yes
Defeat audio cache : Yes
Make use of C2 pointers : No
Read offset correction : 120
Overread into Lead-In and Lead-Out : No
Fill up missing offset samples with silence : Yes
Delete leading and trailing silent blocks : No
Null samples used in CRC calculations : Yes
Used interface : Native Win32 interface for Win NT & 2000
Gap handling : Appended to previous track
Used output format : User Defined Encoder
Selected bitrate : 192 kBit/s
Quality : High
Add ID3 tag : Yes
Command line compressor : C:\Documents and Settings\jhudak\Desktop\Joe\Exact Audio Copy\FLAC\flac.exe
Additional command line options : -V -8 -T "artist=%a" -T "title=%t" -T "album=%g" -T "date=%y" -T "tracknumber=%n" -T "genre=%m" %s
TOC of the extracted CD
Track | Start | Length | Start sector | End sector
---------------------------------------------------------
1 | 0:00.00 | 10:24.60 | 0 | 46859
2 | 10:24.60 | 12:00.45 | 46860 | 100904
3 | 22:25.30 | 13:27.52 | 100905 | 161481
4 | 35:53.07 | 14:02.55 | 161482 | 224686
Track 1
Filename C:\Documents and Settings\jhudak\Desktop\Joe\Matthew Shipp Duo with William Parker - Zo (1997)\Matthew Shipp Duo with William Parker - 01 - Zo #1.wav
Pre-gap length 0:00:02.00
Peak level 98.5 %
Track quality 100.0 %
Test CRC 710A7B1D
Copy CRC 710A7B1D
Track not present in AccurateRip database
Copy OK
Track 2
Filename C:\Documents and Settings\jhudak\Desktop\Joe\Matthew Shipp Duo with William Parker - Zo (1997)\Matthew Shipp Duo with William Parker - 02 - Summertime.wav
Pre-gap length 0:00:01.33
Peak level 81.3 %
Track quality 100.0 %
Test CRC A46E2D53
Copy CRC A46E2D53
Track not present in AccurateRip database
Copy OK
Track 3
Filename C:\Documents and Settings\jhudak\Desktop\Joe\Matthew Shipp Duo with William Parker - Zo (1997)\Matthew Shipp Duo with William Parker - 03 - Zo #2.wav
Pre-gap length 0:00:00.74
Peak level 91.0 %
Track quality 100.0 %
Test CRC AC6F1259
Copy CRC AC6F1259
Track not present in AccurateRip database
Copy OK
Track 4
Filename C:\Documents and Settings\jhudak\Desktop\Joe\Matthew Shipp Duo with William Parker - Zo (1997)\Matthew Shipp Duo with William Parker - 04 - Zo #3.wav
Pre-gap length 0:00:01.47
Peak level 95.3 %
Track quality 100.0 %
Test CRC 2A30CEE1
Copy CRC 2A30CEE1
Track not present in AccurateRip database
Copy OK
None of the tracks are present in the AccurateRip database
No errors occurred
End of status report
 
Содержание индексной карты (.CUE)
REM GENRE Jazz
REM DATE 1997
REM DISCID 2C0BB304
REM COMMENT "ExactAudioCopy v0.99pb5"
PERFORMER "Matthew Shipp Duo with William Parker"
TITLE "Zo"
FILE "01 - Zo #1.wav" WAVE
TRACK 01 AUDIO
TITLE "Zo #1"
PERFORMER "Matthew Shipp Duo with William Parker"
INDEX 01 00:00:00
TRACK 02 AUDIO
TITLE "Summertime"
PERFORMER "Matthew Shipp Duo with William Parker"
INDEX 00 10:23:27
FILE "02 - Summertime.wav" WAVE
INDEX 01 00:00:00
TRACK 03 AUDIO
TITLE "Zo #2"
PERFORMER "Matthew Shipp Duo with William Parker"
INDEX 00 11:59:46
FILE "03 - Zo #2.wav" WAVE
INDEX 01 00:00:00
TRACK 04 AUDIO
TITLE "Zo #3"
PERFORMER "Matthew Shipp Duo with William Parker"
INDEX 00 13:26:05
FILE "04 - Zo #3.wav" WAVE
INDEX 01 00:00:00
другие релизы
По всем вопросам пишите личное сообщение пользователю M0p94ok.
18:38
182
Нет комментариев. Ваш будет первым!