Вы используете незарегистрированную версию компонента "Вкладки"!

Поиск

(avant-garde, bost-bop) Arthur Blythe - Lenox Avenue Breakdown 1979, FLAC (tracks+.cue), lossless

Треклист:

Arthur Blythe - Lenox Avenue Breakdown 1979 /

Жанр: avant-garde, bost-bop
Год издания диска: 1979
Издатель (лейбл): Koch Jazz
Аудиокодек: FLAC (*.flac)
Тип рипа: tracks+.cue
Битрейт аудио: lossless
Продолжительность: 40`24
Источник (релизер): what.cd
Наличие сканов в содержимом раздачи:
Arthur Blythe Mixing, Sax (Alto)
Jack DeJohnette Drums
Guilherme Franco Percussion
Cecil McBee Bass, Guitar
James Newton Flute
Bob Stewart Tuba
James Blood Ulmer Guitar
Треклист:
01 - Down San Diego Way .flac
02 - Lenox Avenue Breakdown .flac
03 - Slidin' Through .flac
04 - Odessa .flac
 
Лог создания рипа
Exact Audio Copy V0.99 prebeta 4 from 23. January 2008
EAC extraction logfile from 4. April 2009, 11:01
Arthur Blythe / Lenox Avenue Breakdown
Used drive : TSSTcorpCDDVDW TS-L633L Adapter: 2 ID: 0
Read mode : Secure
Utilize accurate stream : Yes
Defeat audio cache : Yes
Make use of C2 pointers : No
Read offset correction : 6
Overread into Lead-In and Lead-Out : No
Fill up missing offset samples with silence : Yes
Delete leading and trailing silent blocks : No
Null samples used in CRC calculations : Yes
Used interface : Native Win32 interface for Win NT & 2000
Gap handling : Appended to previous track
Used output format : User Defined Encoder
Selected bitrate : 128 kBit/s
Quality : High
Add ID3 tag : No
Command line compressor : C:\Program Files\Exact Audio Copy\Flac\flac.exe
Additional command line options : -V -8 -T "artist=%a" -T "title=%t" -T "album=%g" -T "date=%y" -T "tracknumber=%n" -T "genre=%m" %s
TOC of the extracted CD
Track | Start | Length | Start sector | End sector
---------------------------------------------------------
1 | 0:00.00 | 7:46.45 | 0 | 34994
2 | 7:46.45 | 13:27.44 | 34995 | 95563
3 | 21:14.14 | 9:37.73 | 95564 | 138911
4 | 30:52.12 | 9:31.29 | 138912 | 181765
Track 1
Filename C:\EACrips\Arthur Blythe - 1979 - Lenox Avenue Breakdown\01 - Down San Diego Way .wav
Pre-gap length 0:00:02.00
Peak level 92.8 %
Track quality 100.0 %
Test CRC B9951291
Copy CRC B9951291
Accurately ripped (confidence 2) [99182440]
Copy OK
Track 2
Filename C:\EACrips\Arthur Blythe - 1979 - Lenox Avenue Breakdown\02 - Lenox Avenue Breakdown .wav
Pre-gap length 0:00:01.60
Peak level 100.0 %
Track quality 99.9 %
Test CRC A05D8232
Copy CRC A05D8232
Accurately ripped (confidence 2) [913DB131]
Copy OK
Track 3
Filename C:\EACrips\Arthur Blythe - 1979 - Lenox Avenue Breakdown\03 - Slidin' Through .wav
Pre-gap length 0:00:01.60
Peak level 100.0 %
Track quality 100.0 %
Test CRC 817C9564
Copy CRC 817C9564
Accurately ripped (confidence 2) [4C2CB6F7]
Copy OK
Track 4
Filename C:\EACrips\Arthur Blythe - 1979 - Lenox Avenue Breakdown\04 - Odessa .wav
Pre-gap length 0:00:01.60
Peak level 100.0 %
Track quality 100.0 %
Test CRC 763F25FB
Copy CRC 763F25FB
Accurately ripped (confidence 2) [46C0F80B]
Copy OK
All tracks accurately ripped
No errors occurred
End of status report
 
Содержание индексной карты (.CUE)
REM GENRE Jazz
REM DATE 1979
REM DISCID 36097704
REM COMMENT "ExactAudioCopy v0.99pb4"
PERFORMER "Arthur Blythe"
TITLE "Lenox Avenue Breakdown"
FILE "01 - Down San Diego Way .wav" WAVE
TRACK 01 AUDIO
TITLE "Down San Diego Way"
PERFORMER "Arthur Blythe"
FLAGS DCP
INDEX 01 00:00:00
TRACK 02 AUDIO
TITLE "Lenox Avenue Breakdown"
PERFORMER "Arthur Blythe"
FLAGS DCP
INDEX 00 07:45:00
FILE "02 - Lenox Avenue Breakdown .wav" WAVE
INDEX 01 00:00:00
TRACK 03 AUDIO
TITLE "Slidin' Through"
PERFORMER "Arthur Blythe"
FLAGS DCP
INDEX 00 13:25:74
FILE "03 - Slidin' Through .wav" WAVE
INDEX 01 00:00:00
TRACK 04 AUDIO
TITLE "Odessa"
PERFORMER "Arthur Blythe"
FLAGS DCP
INDEX 00 09:36:28
FILE "04 - Odessa .wav" WAVE
INDEX 01 00:00:00
другие релизы
Any questions -> support@pro-jazz.com. По всем вопросам пишите -> support@pro-jazz.com
18:37
197
Нет комментариев. Ваш будет первым!