Вы используете незарегистрированную версию компонента "Вкладки"!

Поиск

(free jazz) Ornette Coleman & Joachim Kuhn - Colors: Live From Leipzig 1996, FLAC (tracks+.cue), lossless

(free jazz) Ornette Coleman & Joachim Kuhn - Colors: Live From Leipzig 1996, FLAC (tracks+.cue), lossless
Треклист:

Ornette Coleman & Joachim Kuhn
Colors: Live From Leipzig 1996
Жанр: free jazz
Год издания диска: 1996
Аудиокодек: FLAC (*.flac)
Тип рипа: tracks+.cue
Битрейт аудио: lossless
Источник (релизер): what.cd
Наличие сканов в содержимом раздачи: нет
Recorded on 31 August 1996 during the 20th Anniversary Leipziger JazzTage at the Leipzig Opera.
Alto Saxophone, Violin, Trumpet, Composed By - Ornette Coleman
Piano - Joachim Kühn
Producer - Denardo Coleman
Tracklist:
1. Faxing (5:43)
2. House Of Stained Glass (7:08)
3. Refills (9:02)
4. Story Writing (10:21)
5. Three Ways To One (8:54)
6. Passion Cultures (8:41)
7. Night Plans (10:01)
8. Cyber Cyber (5:48)
 
Лог создания рипа
Exact Audio Copy V1.0 beta 1 from 15. November 2010
EAC extraction logfile from 31. December 2010, 17:37
Ornette Coleman & Joachim Kuhn / Colors - Live From Leipzig
Used drive : MATSHITADVD-RAM UJ880AS Adapter: 0 ID: 1
Read mode : Secure
Utilize accurate stream : Yes
Defeat audio cache : Yes
Make use of C2 pointers : No
Read offset correction : 102
Overread into Lead-In and Lead-Out : No
Fill up missing offset samples with silence : Yes
Delete leading and trailing silent blocks : No
Null samples used in CRC calculations : Yes
Used interface : Native Win32 interface for Win NT & 2000
Gap handling : Appended to previous track
Used output format : User Defined Encoder
Selected bitrate : 320 kBit/s
Quality : High
Add ID3 tag : No
Command line compressor : C:\Program Files\Exact Audio Copy\Flac\flac.exe
Additional command line options : -V -8 -T "artist=%a" -T "title=%t" -T "album=%g" -T "date=%y" -T "tracknumber=%n" -T "genre=%m" %s
TOC of the extracted CD
Track | Start | Length | Start sector | End sector
---------------------------------------------------------
1 | 0:00.00 | 5:42.67 | 0 | 25716
2 | 5:42.67 | 7:07.25 | 25717 | 57766
3 | 12:50.17 | 9:02.25 | 57767 | 98441
4 | 21:52.42 | 10:20.60 | 98442 | 145001
5 | 32:13.27 | 8:54.03 | 145002 | 185054
6 | 41:07.30 | 8:40.72 | 185055 | 224126
7 | 49:48.27 | 10:01.33 | 224127 | 269234
8 | 59:49.60 | 5:46.32 | 269235 | 295216
Track 1
Filename C:\EACrips\Ornette Coleman & Joachim Kuhn - 1996 - Colors - Live From Leipzig\01 - Faxing.wav
Pre-gap length 0:00:02.00
Peak level 98.6 %
Extraction speed 0.9 X
Track quality 100.0 %
Test CRC 540263A3
Copy CRC 540263A3
Accurately ripped (confidence 5) [445BF9D1]
Copy OK
Track 2
Filename C:\EACrips\Ornette Coleman & Joachim Kuhn - 1996 - Colors - Live From Leipzig\02 - House Of Stained Glass.wav
Peak level 82.8 %
Extraction speed 0.9 X
Track quality 99.9 %
Test CRC A98C76D6
Copy CRC A98C76D6
Accurately ripped (confidence 5) [0656A81F]
Copy OK
Track 3
Filename C:\EACrips\Ornette Coleman & Joachim Kuhn - 1996 - Colors - Live From Leipzig\03 - Refills.wav
Copy aborted
Track 4
Copy aborted
Track 5
Copy aborted
Track 6
Copy aborted
Track 7
Copy aborted
Track 8
Copy aborted
2 track(s) accurately ripped
6 track(s) canceled
Some tracks could not be verified as accurate
There were errors
End of status report
------------------------------------------------------------
Exact Audio Copy V1.0 beta 1 from 15. November 2010
EAC extraction logfile from 5. January 2011, 3:12
Ornette Coleman & Joachim Kuhn / Colors - Live From Leipzig
Used drive : MATSHITADVD-RAM UJ880AS Adapter: 0 ID: 1
Read mode : Secure
Utilize accurate stream : Yes
Defeat audio cache : Yes
Make use of C2 pointers : No
Read offset correction : 102
Overread into Lead-In and Lead-Out : No
Fill up missing offset samples with silence : Yes
Delete leading and trailing silent blocks : No
Null samples used in CRC calculations : Yes
Used interface : Native Win32 interface for Win NT & 2000
Gap handling : Appended to previous track
Used output format : User Defined Encoder
Selected bitrate : 320 kBit/s
Quality : High
Add ID3 tag : No
Command line compressor : C:\Program Files\Exact Audio Copy\Flac\flac.exe
Additional command line options : -V -8 -T "artist=%a" -T "title=%t" -T "album=%g" -T "date=%y" -T "tracknumber=%n" -T "genre=%m" %s
TOC of the extracted CD
Track | Start | Length | Start sector | End sector
---------------------------------------------------------
1 | 0:00.00 | 5:42.67 | 0 | 25716
2 | 5:42.67 | 7:07.25 | 25717 | 57766
3 | 12:50.17 | 9:02.25 | 57767 | 98441
4 | 21:52.42 | 10:20.60 | 98442 | 145001
5 | 32:13.27 | 8:54.03 | 145002 | 185054
6 | 41:07.30 | 8:40.72 | 185055 | 224126
7 | 49:48.27 | 10:01.33 | 224127 | 269234
8 | 59:49.60 | 5:46.32 | 269235 | 295216
Track 1
Filename C:\EACrips\Ornette Coleman & Joachim Kuhn - 1996 - Colors - Live From Leipzig\01 - Faxing.wav
Pre-gap length 0:00:02.00
Peak level 98.6 %
Extraction speed 0.9 X
Track quality 100.0 %
Test CRC 540263A3
Copy CRC 540263A3
Accurately ripped (confidence 5) [445BF9D1]
Copy OK
Track 2
Filename C:\EACrips\Ornette Coleman & Joachim Kuhn - 1996 - Colors - Live From Leipzig\02 - House Of Stained Glass.wav
Peak level 82.8 %
Extraction speed 0.9 X
Track quality 99.9 %
Test CRC A98C76D6
Copy CRC A98C76D6
Accurately ripped (confidence 5) [0656A81F]
Copy OK
Track 3
Filename C:\EACrips\Ornette Coleman & Joachim Kuhn - 1996 - Colors - Live From Leipzig\03 - Refills.wav
Peak level 88.5 %
Extraction speed 1.1 X
Track quality 100.0 %
Test CRC 10D4BAEC
Copy CRC 10D4BAEC
Accurately ripped (confidence 5) [5E772454]
Copy OK
Track 4
Filename C:\EACrips\Ornette Coleman & Joachim Kuhn - 1996 - Colors - Live From Leipzig\04 - Story Writing.wav
Peak level 94.7 %
Extraction speed 1.2 X
Track quality 100.0 %
Test CRC F28324CA
Copy CRC F28324CA
Accurately ripped (confidence 4) [93C87A07]
Copy OK
Track 5
Filename C:\EACrips\Ornette Coleman & Joachim Kuhn - 1996 - Colors - Live From Leipzig\05 - Three Ways To One.wav
Peak level 85.3 %
Extraction speed 1.2 X
Track quality 100.0 %
Test CRC F6E6ABC5
Copy CRC F6E6ABC5
Accurately ripped (confidence 5) [79020207]
Copy OK
Track 6
Filename C:\EACrips\Ornette Coleman & Joachim Kuhn - 1996 - Colors - Live From Leipzig\06 - Passion Cultures.wav
Peak level 79.9 %
Extraction speed 1.3 X
Track quality 100.0 %
Test CRC 64C1C6D9
Copy CRC 64C1C6D9
Accurately ripped (confidence 5) [F7078D7E]
Copy OK
Track 7
Filename C:\EACrips\Ornette Coleman & Joachim Kuhn - 1996 - Colors - Live From Leipzig\07 - Night Plans.wav
Peak level 73.3 %
Extraction speed 1.3 X
Track quality 100.0 %
Test CRC 8CF5AA33
Copy CRC 8CF5AA33
Accurately ripped (confidence 5) [8513F8E7]
Copy OK
Track 8
Filename C:\EACrips\Ornette Coleman & Joachim Kuhn - 1996 - Colors - Live From Leipzig\08 - Cyber Cyber.wav
Peak level 97.9 %
Extraction speed 1.3 X
Track quality 100.0 %
Test CRC 51DBD9F9
Copy CRC 51DBD9F9
Accurately ripped (confidence 5) [B5922825]
Copy OK
All tracks accurately ripped
No errors occurred
End of status report
 
Содержание индексной карты (.CUE)
REM GENRE "Contemporary Jazz"
REM DATE 1996
REM DISCID 730F6008
REM COMMENT "ExactAudioCopy v1.0b1"
FILE "01 - Faxing.wav" WAVE
TRACK 01 AUDIO
INDEX 01 00:00:00
FILE "02 - House Of Stained Glass.wav" WAVE
TRACK 02 AUDIO
INDEX 01 00:00:00
FILE "03 - Refills.wav" WAVE
TRACK 03 AUDIO
INDEX 01 00:00:00
FILE "04 - Story Writing.wav" WAVE
TRACK 04 AUDIO
INDEX 01 00:00:00
FILE "05 - Three Ways To One.wav" WAVE
TRACK 05 AUDIO
INDEX 01 00:00:00
FILE "06 - Passion Cultures.wav" WAVE
TRACK 06 AUDIO
INDEX 01 00:00:00
FILE "07 - Night Plans.wav" WAVE
TRACK 07 AUDIO
INDEX 01 00:00:00
FILE "08 - Cyber Cyber.wav" WAVE
TRACK 08 AUDIO
INDEX 01 00:00:00
другие релизы
Any questions -> support@pro-jazz.com. По всем вопросам пишите -> support@pro-jazz.com
18:36
250
Нет комментариев. Ваш будет первым!