Вы используете незарегистрированную версию компонента "Вкладки"!

Поиск

(Free Jazz) Darius Jones & Matthew Shipp - Cosmic Lieder - 2011, FLAC (tracks+.cue), lossless

(Free Jazz) Darius Jones & Matthew Shipp - Cosmic Lieder - 2011, FLAC (tracks+.cue), lossless
Треклист:
Darius Jones & Matthew Shipp / Cosmic Lieder
Жанр: Free Jazz
Страна-производитель диска: США
Год издания диска: 2011
Издатель (лейбл): AUM Fidelity
Номер по каталогу: AUM066
Страна: США
Аудиокодек: FLAC (*.flac)
Тип рипа: tracks+.cue
Битрейт аудио: lossless
Продолжительность: 39:53
Источник (релизер): вот.сиди (bikeshed)
Наличие сканов в содержимом раздачи: нет
Треклист:
1 .Bleed 3:08
2 .Ultima Thule 4:06
3 .Zillo Valla 3:23
4 .Multiverse 3:37
5 .Mandrakk 3:10
6 .Overvoid 2:37
7 .Weeja Dell 3:42
8 .Motherboxxx 2:43
9 .Black Lightning 2:17
10 .Nix Uotan 3:03
11 .Jonesy 2:21
12 .4-D Vision 3:07
13 .Geh-Jedollah 2:38
Recorded on October 29, 2010 at Systems Two Studio, Brooklyn
 
Лог создания рипа
X Lossless Decoder version 20111113 (137.1)
XLD extraction logfile from 2011-11-19 00:39:04 +0000
Darius Jones/Matthew Shipp / Cosmic Lieder
Used drive : MATSHITA DVD-R UJ-8A8 (revision HA13)
Ripper mode : XLD Secure Ripper
Disable audio cache : OK for the drive with a cache less than 1375KiB
Make use of C2 pointers : NO
Read offset correction : 102
Max retry count : 100
Gap status : Analyzed, Appended
TOC of the extracted CD
Track | Start | Length | Start sector | End sector
---------------------------------------------------------
1 | 00:00:00 | 03:07:72 | 0 | 14096
2 | 03:07:72 | 04:06:30 | 14097 | 32576
3 | 07:14:27 | 03:22:58 | 32577 | 47784
4 | 10:37:10 | 03:37:00 | 47785 | 64059
5 | 14:14:10 | 03:09:56 | 64060 | 78290
6 | 17:23:66 | 02:36:61 | 78291 | 90051
7 | 20:00:52 | 03:42:09 | 90052 | 106710
8 | 23:42:61 | 02:43:27 | 106711 | 118962
9 | 26:26:13 | 02:17:31 | 118963 | 129268
10 | 28:43:44 | 03:03:23 | 129269 | 143016
11 | 31:46:67 | 02:20:69 | 143017 | 153585
12 | 34:07:61 | 03:07:04 | 153586 | 167614
13 | 37:14:65 | 02:38:10 | 167615 | 179474
AccurateRip Summary
Track 01 : OK (AR2, confidence 1)
Track 02 : OK (AR2, confidence 1)
Track 03 : OK (AR2, confidence 1)
Track 04 : OK (AR2, confidence 1)
Track 05 : OK (AR2, confidence 1)
Track 06 : OK (AR2, confidence 1)
Track 07 : OK (AR2, confidence 1)
Track 08 : OK (AR2, confidence 1)
Track 09 : OK (AR2, confidence 1)
Track 10 : OK (AR2, confidence 1)
Track 11 : OK (AR2, confidence 1)
Track 12 : OK (AR2, confidence 1)
Track 13 : OK (AR2, confidence 1)
->All tracks accurately ripped.
All Tracks
Album gain : -6.00 dB
Peak : 0.977844
Statistics
Read error : 0
Jitter error (maybe fixed) : 0
Retry sector count : 0
Damaged sector count : 0
Track 01
Filename : /Users/bikeshed/Documents/Rips/Darius Jones/Matthew Shipp (2011) - Cosmic Lieder [FLAC]/01 Bleed.flac
Pre-gap length : 00:02:00
Track gain : -5.98 dB
Peak : 0.977417
CRC32 hash (test run) : D27F446E
CRC32 hash : D27F446E
CRC32 hash (skip zero) : 762779B5
AccurateRip signature : 4F32D55E
->Accurately ripped! (AR2, confidence 1)
Statistics
Read error : 0
Jitter error (maybe fixed) : 0
Retry sector count : 0
Damaged sector count : 0
Track 02
Filename : /Users/bikeshed/Documents/Rips/Darius Jones/Matthew Shipp (2011) - Cosmic Lieder [FLAC]/02 Ultima Thule.flac
Pre-gap length : 00:02:00
Track gain : -4.84 dB
Peak : 0.977203
CRC32 hash (test run) : C6A9CC62
CRC32 hash : C6A9CC62
CRC32 hash (skip zero) : 36DF31F9
AccurateRip signature : C534A7DF
->Accurately ripped! (AR2, confidence 1)
Statistics
Read error : 0
Jitter error (maybe fixed) : 0
Retry sector count : 0
Damaged sector count : 0
Track 03
Filename : /Users/bikeshed/Documents/Rips/Darius Jones/Matthew Shipp (2011) - Cosmic Lieder [FLAC]/03 Zillo Valla.flac
Pre-gap length : 00:02:00
Track gain : -5.73 dB
Peak : 0.977386
CRC32 hash (test run) : 8D665384
CRC32 hash : 8D665384
CRC32 hash (skip zero) : ADD6B1B2
AccurateRip signature : 92A56C82
->Accurately ripped! (AR2, confidence 1)
Statistics
Read error : 0
Jitter error (maybe fixed) : 0
Retry sector count : 0
Damaged sector count : 0
Track 04
Filename : /Users/bikeshed/Documents/Rips/Darius Jones/Matthew Shipp (2011) - Cosmic Lieder [FLAC]/04 Multiverse.flac
Pre-gap length : 00:02:00
Track gain : -6.72 dB
Peak : 0.977631
CRC32 hash (test run) : 7BD28C0A
CRC32 hash : 7BD28C0A
CRC32 hash (skip zero) : 0CB48A50
AccurateRip signature : 91479291
->Accurately ripped! (AR2, confidence 1)
Statistics
Read error : 0
Jitter error (maybe fixed) : 0
Retry sector count : 0
Damaged sector count : 0
Track 05
Filename : /Users/bikeshed/Documents/Rips/Darius Jones/Matthew Shipp (2011) - Cosmic Lieder [FLAC]/05 Mandrakk.flac
Pre-gap length : 00:02:00
Track gain : -4.95 dB
Peak : 0.977814
CRC32 hash (test run) : 926BA077
CRC32 hash : 926BA077
CRC32 hash (skip zero) : B7D1630A
AccurateRip signature : A2471F2C
->Accurately ripped! (AR2, confidence 1)
Statistics
Read error : 0
Jitter error (maybe fixed) : 0
Retry sector count : 0
Damaged sector count : 0
Track 06
Filename : /Users/bikeshed/Documents/Rips/Darius Jones/Matthew Shipp (2011) - Cosmic Lieder [FLAC]/06 Overvoid.flac
Pre-gap length : 00:02:00
Track gain : -5.87 dB
Peak : 0.977570
CRC32 hash (test run) : A339CFFE
CRC32 hash : A339CFFE
CRC32 hash (skip zero) : 6CF184E2
AccurateRip signature : 22600218
->Accurately ripped! (AR2, confidence 1)
Statistics
Read error : 0
Jitter error (maybe fixed) : 0
Retry sector count : 0
Damaged sector count : 0
Track 07
Filename : /Users/bikeshed/Documents/Rips/Darius Jones/Matthew Shipp (2011) - Cosmic Lieder [FLAC]/07 Weeja Dell.flac
Pre-gap length : 00:02:00
Track gain : -4.51 dB
Peak : 0.976776
CRC32 hash (test run) : 53A23520
CRC32 hash : 53A23520
CRC32 hash (skip zero) : 9A70CD13
AccurateRip signature : 4D867BFE
->Accurately ripped! (AR2, confidence 1)
Statistics
Read error : 0
Jitter error (maybe fixed) : 0
Retry sector count : 0
Damaged sector count : 0
Track 08
Filename : /Users/bikeshed/Documents/Rips/Darius Jones/Matthew Shipp (2011) - Cosmic Lieder [FLAC]/08 Motherboxxx.flac
Pre-gap length : 00:02:00
Track gain : -4.13 dB
Peak : 0.976837
CRC32 hash (test run) : 6C7A3DAE
CRC32 hash : 6C7A3DAE
CRC32 hash (skip zero) : 38D0C538
AccurateRip signature : D69C78DE
->Accurately ripped! (AR2, confidence 1)
Statistics
Read error : 0
Jitter error (maybe fixed) : 0
Retry sector count : 0
Damaged sector count : 0
Track 09
Filename : /Users/bikeshed/Documents/Rips/Darius Jones/Matthew Shipp (2011) - Cosmic Lieder [FLAC]/09 Black Lightning.flac
Pre-gap length : 00:02:00
Track gain : -6.29 dB
Peak : 0.977600
CRC32 hash (test run) : 310482BE
CRC32 hash : 310482BE
CRC32 hash (skip zero) : 2EADDB11
AccurateRip signature : 29B80CF3
->Accurately ripped! (AR2, confidence 1)
Statistics
Read error : 0
Jitter error (maybe fixed) : 0
Retry sector count : 0
Damaged sector count : 0
Track 10
Filename : /Users/bikeshed/Documents/Rips/Darius Jones/Matthew Shipp (2011) - Cosmic Lieder [FLAC]/10 Nix Uotan.flac
Pre-gap length : 00:02:00
Track gain : -6.76 dB
Peak : 0.977783
CRC32 hash (test run) : 349BB5C4
CRC32 hash : 349BB5C4
CRC32 hash (skip zero) : 60E2205C
AccurateRip signature : 670822C5
->Accurately ripped! (AR2, confidence 1)
Statistics
Read error : 0
Jitter error (maybe fixed) : 0
Retry sector count : 0
Damaged sector count : 0
Track 11
Filename : /Users/bikeshed/Documents/Rips/Darius Jones/Matthew Shipp (2011) - Cosmic Lieder [FLAC]/11 Jonesy.flac
Pre-gap length : 00:02:00
Track gain : -4.56 dB
Peak : 0.977600
CRC32 hash (test run) : 69F09700
CRC32 hash : 69F09700
CRC32 hash (skip zero) : 6C4F02A2
AccurateRip signature : 27D7283A
->Accurately ripped! (AR2, confidence 1)
Statistics
Read error : 0
Jitter error (maybe fixed) : 0
Retry sector count : 0
Damaged sector count : 0
Track 12
Filename : /Users/bikeshed/Documents/Rips/Darius Jones/Matthew Shipp (2011) - Cosmic Lieder [FLAC]/12 4-D Vision.flac
Pre-gap length : 00:02:00
Track gain : -6.57 dB
Peak : 0.977631
CRC32 hash (test run) : A4678E6B
CRC32 hash : A4678E6B
CRC32 hash (skip zero) : D0CD9C8C
AccurateRip signature : 4794C900
->Accurately ripped! (AR2, confidence 1)
Statistics
Read error : 0
Jitter error (maybe fixed) : 0
Retry sector count : 0
Damaged sector count : 0
Track 13
Filename : /Users/bikeshed/Documents/Rips/Darius Jones/Matthew Shipp (2011) - Cosmic Lieder [FLAC]/13 Geh-Jedollah.flac
Pre-gap length : 00:02:00
Track gain : -3.26 dB
Peak : 0.977844
CRC32 hash (test run) : 257D1F12
CRC32 hash : 257D1F12
CRC32 hash (skip zero) : 9E3FF54B
AccurateRip signature : C33CD02E
->Accurately ripped! (AR2, confidence 1)
Statistics
Read error : 0
Jitter error (maybe fixed) : 0
Retry sector count : 0
Damaged sector count : 0
No errors occurred
End of status report
 
Содержание индексной карты (.CUE)
TITLE "Cosmic Lieder"
PERFORMER "Darius Jones/Matthew Shipp"
REM GENRE "Jazz"
REM DATE "2011"
REM DISCNUMBER 1
REM TOTALDISCS 1
REM DISCID B309590D
FILE "01 Bleed.wav" WAVE
TRACK 01 AUDIO
TITLE "Bleed"
INDEX 01 00:00:00
TRACK 02 AUDIO
TITLE "Ultima Thule"
INDEX 00 03:05:72
FILE "02 Ultima Thule.wav" WAVE
INDEX 01 00:00:00
TRACK 03 AUDIO
TITLE "Zillo Valla"
INDEX 00 04:04:30
FILE "03 Zillo Valla.wav" WAVE
INDEX 01 00:00:00
TRACK 04 AUDIO
TITLE "Multiverse"
INDEX 00 03:20:58
FILE "04 Multiverse.wav" WAVE
INDEX 01 00:00:00
TRACK 05 AUDIO
TITLE "Mandrakk"
INDEX 00 03:35:00
FILE "05 Mandrakk.wav" WAVE
INDEX 01 00:00:00
TRACK 06 AUDIO
TITLE "Overvoid"
INDEX 00 03:07:56
FILE "06 Overvoid.wav" WAVE
INDEX 01 00:00:00
TRACK 07 AUDIO
TITLE "Weeja Dell"
INDEX 00 02:34:61
FILE "07 Weeja Dell.wav" WAVE
INDEX 01 00:00:00
TRACK 08 AUDIO
TITLE "Motherboxxx"
INDEX 00 03:40:09
FILE "08 Motherboxxx.wav" WAVE
INDEX 01 00:00:00
TRACK 09 AUDIO
TITLE "Black Lightning"
INDEX 00 02:41:27
FILE "09 Black Lightning.wav" WAVE
INDEX 01 00:00:00
TRACK 10 AUDIO
TITLE "Nix Uotan"
INDEX 00 02:15:31
FILE "10 Nix Uotan.wav" WAVE
INDEX 01 00:00:00
TRACK 11 AUDIO
TITLE "Jonesy"
INDEX 00 03:01:23
FILE "11 Jonesy.wav" WAVE
INDEX 01 00:00:00
TRACK 12 AUDIO
TITLE "4-D Vision"
INDEX 00 02:18:69
FILE "12 4-D Vision.wav" WAVE
INDEX 01 00:00:00
TRACK 13 AUDIO
TITLE "Geh-Jedollah"
INDEX 00 03:05:04
FILE "13 Geh-Jedollah.wav" WAVE
INDEX 01 00:00:00
 
Лог проверки качества
AUDIOCHECKER v2.0 beta (build 457) - by Dester - opdester@freemail.hu
~~~~~~~~~~~~~~~~~~~~~~~~~~~~~~~~~~
-=== DO NOT EDIT THIS FILE! ===-
Path: ...\Darius Jones Matthew Shipp (2011) - Cosmic Lieder [FLAC]
01 -=- 01 Bleed.flac -=- CDDA (100%)
02 -=- 02 Ultima Thule.flac -=- CDDA (99%)
03 -=- 03 Zillo Valla.flac -=- CDDA (100%)
04 -=- 04 Multiverse.flac -=- CDDA (100%)
05 -=- 05 Mandrakk.flac -=- CDDA (99%)
06 -=- 06 Overvoid.flac -=- CDDA (100%)
07 -=- 07 Weeja Dell.flac -=- CDDA (100%)
08 -=- 08 Motherboxxx.flac -=- CDDA (100%)
09 -=- 09 Black Lightning.flac -=- CDDA (100%)
10 -=- 10 Nix Uotan.flac -=- CDDA (100%)
11 -=- 11 Jonesy.flac -=- CDDA (100%)
12 -=- 12 4-D Vision.flac -=- CDDA (100%)
13 -=- 13 Geh-Jedollah.flac -=- CDDA (100%)
Summary 99,85% CDDA
90238052
 
Состав
Darius Jones: alto saxophone
Matthew Shipp: piano
Any questions -> support@pro-jazz.com. По всем вопросам пишите -> support@pro-jazz.com
18:38
196
Нет комментариев. Ваш будет первым!