Поиск

(Avant-Garde, Klezmer Jazz) Masada - Vav [Six] - 1995, FLAC (tracks+.cue), lossless

(Avant-Garde, Klezmer Jazz) Masada - Vav [Six] - 1995, FLAC (tracks+.cue), lossless
Треклист:
Masada / Vav [Six]
Жанр: Avant-Garde, Klezmer Jazz
Страна-производитель диска: Japan
Год издания: 1995
Издатель (лейбл): DIW Records
Номер по каталогу: DIW-900
Аудиокодек: FLAC (*.flac)
Тип рипа: tracks+.cue
Битрейт аудио: lossless
Продолжительность: 1:01:07
Источник (релизер): Max Monteiro
Наличие сканов в содержимом раздачи: нет
Треклист:
1. Debir 8:03
2. Shebuah 8:10
3. Mikreh 3:57
4. Tiferet 4:06
5. Nevalah 2:11
6. Miktav 9:41
7. Nashon 8:38
8. Avelut 7:32
9. Beer Sheba 8:51
All compositions by John Zorn.
Recorded at Power Station, NYC on July 16 & 17, 1995.
John Zorn – Alto Sax
Dave Douglas – Trumpet
Greg Cohen – Bass
Joey Baron – Drums
 
Лог создания рипа
Exact Audio Copy V1.0 beta 3 from 29. August 2011
EAC extraction logfile from 12. June 2013, 21:01
Masada / Vav
Used drive : SlimtypeeNAU508 5 Adapter: 1 ID: 0
Read mode : Secure
Utilize accurate stream : Yes
Defeat audio cache : Yes
Make use of C2 pointers : No
Read offset correction : 6
Overread into Lead-In and Lead-Out : No
Fill up missing offset samples with silence : Yes
Delete leading and trailing silent blocks : No
Null samples used in CRC calculations : Yes
Used interface : Native Win32 interface for Win NT & 2000
Gap handling : Appended to previous track
Used output format : User Defined Encoder
Selected bitrate : 768 kBit/s
Quality : High
Add ID3 tag : No
Command line compressor : C:\Program Files (x86)\Exact Audio Copy\Flac\flac.exe
Additional command line options : -8 -V -T "ARTIST=%artist%" -T "TITLE=%title%" -T "ALBUM=%albumtitle%" -T "DATE=%year%" -T "TRACKNUMBER=%tracknr%" -T "GENRE=%genre%" -T "PERFORMER=%albuminterpret%" -T "COMPOSER=%composer%" %haslyrics%--tag-from-file=LYRICS="%lyricsfile%"%haslyrics% -T "ALBUMARTIST=%albumartist%" -T "DISCNUMBER=%cdnumber%" -T "TOTALDISCS=%totalcds%" -T "TOTALTRACKS=%numtracks%" -T "COMMENT=%comment%" %source% -o %dest%
TOC of the extracted CD
Track | Start | Length | Start sector | End sector
---------------------------------------------------------
1 | 0:00.00 | 8:02.52 | 0 | 36201
2 | 8:02.52 | 8:09.45 | 36202 | 72921
3 | 16:12.22 | 3:57.13 | 72922 | 90709
4 | 20:09.35 | 4:05.72 | 90710 | 109156
5 | 24:15.32 | 2:10.53 | 109157 | 118959
6 | 26:26.10 | 9:40.40 | 118960 | 162499
7 | 36:06.50 | 8:37.59 | 162500 | 201333
8 | 44:44.34 | 7:31.58 | 201334 | 235216
9 | 52:16.17 | 8:50.43 | 235217 | 275009
Track 1
Filename C:\EAC rips\01 - Debir.wav
Pre-gap length 0:00:02.00
Peak level 98.8 %
Extraction speed 2.1 X
Track quality 99.9 %
Test CRC 03E5BD7E
Copy CRC 03E5BD7E
Accurately ripped (confidence 2) [1BFDE76C] (AR v2)
Copy OK
Track 2
Filename C:\EAC rips\02 - Shebuah.wav
Peak level 98.8 %
Extraction speed 2.8 X
Track quality 100.0 %
Test CRC 763E182F
Copy CRC 763E182F
Accurately ripped (confidence 3) [98994EF6] (AR v2)
Copy OK
Track 3
Filename C:\EAC rips\03 - Mikreh.wav
Peak level 98.8 %
Extraction speed 2.9 X
Track quality 100.0 %
Test CRC 1143B96F
Copy CRC 1143B96F
Accurately ripped (confidence 3) [69D67DD8] (AR v2)
Copy OK
Track 4
Filename C:\EAC rips\04 - Tiferet.wav
Peak level 45.1 %
Extraction speed 3.1 X
Track quality 100.0 %
Test CRC B84EF4D7
Copy CRC B84EF4D7
Accurately ripped (confidence 3) [E29C511E] (AR v2)
Copy OK
Track 5
Filename C:\EAC rips\05 - Nevalah.wav
Peak level 98.8 %
Extraction speed 2.9 X
Track quality 100.0 %
Test CRC 754FC3C9
Copy CRC 754FC3C9
Accurately ripped (confidence 3) [4FAD1CF3] (AR v2)
Copy OK
Track 6
Filename C:\EAC rips\06 - Miktav.wav
Peak level 62.4 %
Extraction speed 3.7 X
Track quality 100.0 %
Test CRC C4CAA859
Copy CRC C4CAA859
Accurately ripped (confidence 3) [384DC9F8] (AR v2)
Copy OK
Track 7
Filename C:\EAC rips\07 - Nashon.wav
Peak level 98.8 %
Extraction speed 4.1 X
Track quality 100.0 %
Test CRC 40DDB520
Copy CRC 40DDB520
Accurately ripped (confidence 3) [6F6A537D] (AR v2)
Copy OK
Track 8
Filename C:\EAC rips\08 - Avelut.wav
Peak level 56.2 %
Extraction speed 4.2 X
Track quality 100.0 %
Test CRC 115DD62B
Copy CRC 115DD62B
Accurately ripped (confidence 3) [E37F3FD8] (AR v2)
Copy OK
Track 9
Filename C:\EAC rips\09 - Beer Sheba.wav
Peak level 89.1 %
Extraction speed 4.1 X
Track quality 99.9 %
Test CRC 608D69B4
Copy CRC 608D69B4
Accurately ripped (confidence 3) [E3462357] (AR v2)
Copy OK
All tracks accurately ripped
No errors occurred
End of status report
---- CUETools DB Plugin V2.1.4
[CTDB TOCID: qABGaXDlfD4v3lpkziAXo.rFsJs-] found
Submit result: qABGaXDlfD4v3lpkziAXo.rFsJs- has been confirmed
Track | CTDB Status
1 | (6/6) Accurately ripped
2 | (6/6) Accurately ripped
3 | (6/6) Accurately ripped
4 | (6/6) Accurately ripped
5 | (6/6) Accurately ripped
6 | (6/6) Accurately ripped
7 | (6/6) Accurately ripped
8 | (6/6) Accurately ripped
9 | (6/6) Accurately ripped
==== Log checksum A39946A9E4BBC41629DF735263D90A4199C0567A90272A076E0E24B56F5E7161 ====
 
Содержание индексной карты (.CUE)
REM GENRE Jazz
REM DATE 1995
REM DISCID 880E5209
REM COMMENT "ExactAudioCopy v1.0b3"
PERFORMER "Masada"
TITLE "Vav"
FILE "01 - Debir.wav" WAVE
TRACK 01 AUDIO
TITLE "Debir"
PERFORMER "Masada"
INDEX 01 00:00:00
FILE "02 - Shebuah.wav" WAVE
TRACK 02 AUDIO
TITLE "Shebuah"
PERFORMER "Masada"
INDEX 01 00:00:00
FILE "03 - Mikreh.wav" WAVE
TRACK 03 AUDIO
TITLE "Mikreh"
PERFORMER "Masada"
INDEX 01 00:00:00
FILE "04 - Tiferet.wav" WAVE
TRACK 04 AUDIO
TITLE "Tiferet"
PERFORMER "Masada"
INDEX 01 00:00:00
FILE "05 - Nevalah.wav" WAVE
TRACK 05 AUDIO
TITLE "Nevalah"
PERFORMER "Masada"
INDEX 01 00:00:00
FILE "06 - Miktav.wav" WAVE
TRACK 06 AUDIO
TITLE "Miktav"
PERFORMER "Masada"
INDEX 01 00:00:00
FILE "07 - Nashon.wav" WAVE
TRACK 07 AUDIO
TITLE "Nashon"
PERFORMER "Masada"
INDEX 01 00:00:00
FILE "08 - Avelut.wav" WAVE
TRACK 08 AUDIO
TITLE "Avelut"
PERFORMER "Masada"
INDEX 01 00:00:00
FILE "09 - Beer Sheba.wav" WAVE
TRACK 09 AUDIO
TITLE "Beer Sheba"
PERFORMER "Masada"
INDEX 01 00:00:00
11:32
316
Нет комментариев. Ваш будет первым!