Поиск

(Ethnic Jazz, Klezmer) David Krakauer & Socalled with Klezmer Madness! - Bubbemeises: Lies My Gramma Told Me - 2005, FLAC (tracks+.cue), lossless

(Ethnic Jazz, Klezmer) David Krakauer & Socalled with Klezmer Madness! - Bubbemeises: Lies My Gramma Told Me - 2005, FLAC (tracks+.cue), lossless
David Krakauer & Socalled with Klezmer Madness! / Bubbemeises: Lies My Gramma Told Me
Жанр: Ethnic Jazz, Klezmer
Страна-производитель диска: France
Год издания: 2005
Издатель (лейбл): Label Bleu
Номер по каталогу: LBLC 6677
Аудиокодек: FLAC (*.flac)
Тип рипа: tracks+.cue
Битрейт аудио: lossless
Продолжительность: 45:38
Источник (релизер): Max Monteiro
Наличие сканов в содержимом раздачи: нет
Треклист:
01. Bubbemeises (words: J. Dolgin, music: J. Weinberg, arr. by D. Krakauer) 6:25
02. MS N.C. (D. Krakauer) 2:50
03. Moskovitz and Loops of It (D. Krakauer / J. Dolgin) 5:09
04. B Flat à la Socalled (J. Dolgin / D. Krakauer) 6:35
05. Turntable Pounding (J. Dolgin / D. Krakauer / trad.) 4:25
06. Long… Short, Long (Les Colocs) (J. Dolgin / trad.) 2:35
07. Bus Number 9999 (text: 99 Hooker, music: D. Krakauer) 4:22
08. The Electric Sher (J. Dolgin / trad.) 3:56
09. Rumania, Rumania (A. Lebedeff, arr. by J. Dolgin & D. Krakauer) 7:42
10. Rue Mania (Klezmer Madness) 1:39
 
Лог создания рипа
Exact Audio Copy V1.0 beta 3 from 29. August 2011
EAC extraction logfile from 21. June 2013, 19:47
David Krakauer & Socalled with Klezmer Madness! / Bubbemeises: Lies My Gramma Told Me
Used drive : SlimtypeeNAU508 5 Adapter: 1 ID: 0
Read mode : Secure
Utilize accurate stream : Yes
Defeat audio cache : Yes
Make use of C2 pointers : No
Read offset correction : 6
Overread into Lead-In and Lead-Out : No
Fill up missing offset samples with silence : Yes
Delete leading and trailing silent blocks : No
Null samples used in CRC calculations : Yes
Used interface : Native Win32 interface for Win NT & 2000
Gap handling : Appended to previous track
Used output format : User Defined Encoder
Selected bitrate : 768 kBit/s
Quality : High
Add ID3 tag : No
Command line compressor : C:\Program Files (x86)\Exact Audio Copy\Flac\flac.exe
Additional command line options : -8 -V -T "ARTIST=%artist%" -T "TITLE=%title%" -T "ALBUM=%albumtitle%" -T "DATE=%year%" -T "TRACKNUMBER=%tracknr%" -T "GENRE=%genre%" -T "PERFORMER=%albuminterpret%" -T "COMPOSER=%composer%" %haslyrics%--tag-from-file=LYRICS="%lyricsfile%"%haslyrics% -T "ALBUMARTIST=%albumartist%" -T "DISCNUMBER=%cdnumber%" -T "TOTALDISCS=%totalcds%" -T "TOTALTRACKS=%numtracks%" -T "COMMENT=%comment%" %source% -o %dest%
TOC of the extracted CD
Track | Start | Length | Start sector | End sector
---------------------------------------------------------
1 | 0:00.00 | 6:24.39 | 0 | 28838
2 | 6:24.39 | 2:50.31 | 28839 | 41619
3 | 9:14.70 | 5:08.64 | 41620 | 64783
4 | 14:23.59 | 6:34.39 | 64784 | 94372
5 | 20:58.23 | 4:25.13 | 94373 | 114260
6 | 25:23.36 | 2:35.33 | 114261 | 125918
7 | 27:58.69 | 4:21.67 | 125919 | 145560
8 | 32:20.61 | 3:56.02 | 145561 | 163262
9 | 36:16.63 | 7:42.03 | 163263 | 197915
10 | 43:58.66 | 1:38.60 | 197916 | 205325
Track 1
Filename C:\EAC rips\01 - Bubbemeises.wav
Pre-gap length 0:00:02.00
Peak level 100.0 %
Extraction speed 2.3 X
Track quality 100.0 %
Test CRC 352B03EF
Copy CRC 352B03EF
Accurately ripped (confidence 12) [8DDC6BBC] (AR v1)
Copy OK
Track 2
Filename C:\EAC rips\02 - Ms N.C..wav
Pre-gap length 0:00:01.58
Peak level 85.4 %
Extraction speed 2.3 X
Track quality 100.0 %
Test CRC A25A2DDC
Copy CRC A25A2DDC
Accurately ripped (confidence 12) [AD166531] (AR v1)
Copy OK
Track 3
Filename C:\EAC rips\03 - Moskovitz and Loops of It.wav
Peak level 100.0 %
Extraction speed 2.7 X
Track quality 100.0 %
Test CRC DA3A8618
Copy CRC DA3A8618
Accurately ripped (confidence 12) [DF9A9541] (AR v1)
Copy OK
Track 4
Filename C:\EAC rips\04 - B Flat à la Socalled.wav
Pre-gap length 0:00:00.04
Peak level 100.0 %
Extraction speed 3.1 X
Track quality 100.0 %
Test CRC 995C8852
Copy CRC 995C8852
Accurately ripped (confidence 11) [50757CF1] (AR v1)
Copy OK
Track 5
Filename C:\EAC rips\05 - Turntable Pounding.wav
Pre-gap length 0:00:01.16
Peak level 100.0 %
Extraction speed 3.2 X
Track quality 100.0 %
Test CRC 6AFBF05A
Copy CRC 6AFBF05A
Accurately ripped (confidence 11) [6FCE6E89] (AR v1)
Copy OK
Track 6
Filename C:\EAC rips\06 - Long... Short, Long (Les Colocs).wav
Pre-gap length 0:00:00.67
Peak level 100.0 %
Extraction speed 3.0 X
Track quality 100.0 %
Test CRC 4279C5AA
Copy CRC 4279C5AA
Accurately ripped (confidence 11) [016513B4] (AR v1)
Copy OK
Track 7
Filename C:\EAC rips\07 - Bus Number 9999.wav
Pre-gap length 0:00:00.43
Peak level 100.0 %
Extraction speed 3.5 X
Track quality 100.0 %
Test CRC FDBD938C
Copy CRC FDBD938C
Accurately ripped (confidence 11) [E95B07E2] (AR v1)
Copy OK
Track 8
Filename C:\EAC rips\08 - The Electric Sher.wav
Pre-gap length 0:00:01.34
Peak level 100.0 %
Extraction speed 2.9 X
Track quality 99.9 %
Test CRC 74F03718
Copy CRC 74F03718
Accurately ripped (confidence 11) [DC33E098] (AR v1)
Copy OK
Track 9
Filename C:\EAC rips\09 - Rumania, Rumania.wav
Pre-gap length 0:00:01.58
Peak level 100.0 %
Extraction speed 4.0 X
Track quality 100.0 %
Test CRC 3F113F9A
Copy CRC 3F113F9A
Accurately ripped (confidence 10) [BF0C43F8] (AR v1)
Copy OK
Track 10
Filename C:\EAC rips\10 - Rue Mania.wav
Pre-gap length 0:00:04.14
Peak level 100.0 %
Extraction speed 3.2 X
Track quality 100.0 %
Test CRC 38D3842D
Copy CRC 38D3842D
Accurately ripped (confidence 12) [CF4B5CAF] (AR v1)
Copy OK
All tracks accurately ripped
No errors occurred
End of status report
---- CUETools DB Plugin V2.1.4
[CTDB TOCID: rMZdR9Aatm1x2McFJ8CgRSgaFug-] found
Submit result: rMZdR9Aatm1x2McFJ8CgRSgaFug- has been confirmed
Track | CTDB Status
1 | (5/5) Accurately ripped
2 | (5/5) Accurately ripped
3 | (5/5) Accurately ripped
4 | (5/5) Accurately ripped
5 | (5/5) Accurately ripped
6 | (5/5) Accurately ripped
7 | (5/5) Accurately ripped
8 | (5/5) Accurately ripped
9 | (5/5) Accurately ripped
10 | (5/5) Accurately ripped
==== Log checksum 690C363BA1F208FFCDB86B394C2A710AB5245D1713AB5351D18CC4CCF9CA0735 ====
 
Содержание индексной карты (.CUE)
REM GENRE Yiddish
REM DATE 2005
REM DISCID 890AB10A
REM COMMENT "ExactAudioCopy v1.0b3"
PERFORMER "David Krakauer & Socalled with Klezmer Madness!"
TITLE "Bubbemeises: Lies My Gramma Told Me"
FILE "01 - Bubbemeises.wav" WAVE
TRACK 01 AUDIO
TITLE "Bubbemeises"
PERFORMER "David Krakauer & Socalled with Klezmer Madness!"
ISRC FR1F30040099
INDEX 01 00:00:00
TRACK 02 AUDIO
TITLE "Ms N.C."
PERFORMER "David Krakauer & Socalled with Klezmer Madness!"
ISRC FR1F30040105
INDEX 00 06:22:56
FILE "02 - Ms N.C..wav" WAVE
INDEX 01 00:00:00
FILE "03 - Moskovitz and Loops of It.wav" WAVE
TRACK 03 AUDIO
TITLE "Moskovitz and Loops of It"
PERFORMER "David Krakauer & Socalled with Klezmer Madness!"
ISRC FR1F30040100
INDEX 01 00:00:00
TRACK 04 AUDIO
TITLE "B Flat à la Socalled"
PERFORMER "David Krakauer & Socalled with Klezmer Madness!"
ISRC FR1F30040101
INDEX 00 05:08:60
FILE "04 - B Flat à la Socalled.wav" WAVE
INDEX 01 00:00:00
TRACK 05 AUDIO
TITLE "Turntable Pounding"
PERFORMER "David Krakauer & Socalled with Klezmer Madness!"
ISRC FR1F30040102
INDEX 00 06:33:23
FILE "05 - Turntable Pounding.wav" WAVE
INDEX 01 00:00:00
TRACK 06 AUDIO
TITLE "Long... Short, Long (Les Colocs)"
PERFORMER "David Krakauer & Socalled with Klezmer Madness!"
ISRC FR1F30040103
INDEX 00 04:24:21
FILE "06 - Long... Short, Long (Les Colocs).wav" WAVE
INDEX 01 00:00:00
TRACK 07 AUDIO
TITLE "Bus Number 9999"
PERFORMER "David Krakauer & Socalled with Klezmer Madness!"
ISRC FR1F30040106
INDEX 00 02:34:65
FILE "07 - Bus Number 9999.wav" WAVE
INDEX 01 00:00:00
TRACK 08 AUDIO
TITLE "The Electric Sher"
PERFORMER "David Krakauer & Socalled with Klezmer Madness!"
ISRC FR1F30040104
INDEX 00 04:20:33
FILE "08 - The Electric Sher.wav" WAVE
INDEX 01 00:00:00
TRACK 09 AUDIO
TITLE "Rumania, Rumania"
PERFORMER "David Krakauer & Socalled with Klezmer Madness!"
ISRC FR1F30040107
INDEX 00 03:54:19
FILE "09 - Rumania, Rumania.wav" WAVE
INDEX 01 00:00:00
TRACK 10 AUDIO
TITLE "Rue Mania"
PERFORMER "David Krakauer & Socalled with Klezmer Madness!"
ISRC FR1F30040108
INDEX 00 07:37:64
FILE "10 - Rue Mania.wav" WAVE
INDEX 01 00:00:00
Доп. информация: Recorded November 4th to November 9th at Studio Gil Evans (Amiens).
 
Состав
David Krakauer – Clarinet, Vocals
Sheryl Bailey – Electric Guitar
Will Holshouser – Accordion
Nicki Parrott – Acoustic Bass, Fretless Electric Bass (except on 9, 10)
Trevor Dunn – Electric Bass (6, 8, 9, 10)
Michael Sarin – Drums
Socalled – Sampler, Sequencer, Vocals, Accordion, Organ
99 Hooker – Speaker (7)
Phillip Shaw Bova – Echoplex (5)
12:31
271
Нет комментариев. Ваш будет первым!