Поиск

(World Fusion, Latin Jazz) Airto Moreira - Homeless - 2000, FLAC (tracks+.cue), lossless

(World Fusion, Latin Jazz) Airto Moreira - Homeless - 2000, FLAC (tracks+.cue), lossless
Треклист:
♦ Airto Moreira - Homeless ♦
Жанр: World Fusion, Latin Jazz
Страна-производитель диска: EU
Год издания: 2000
Издатель (лейбл): M.E.L.T.
Номер по каталогу: EFA 891 40-2
Аудиокодек: FLAC (*.flac)
Тип рипа: tracks+.cue
Битрейт аудио: lossless
Продолжительность: 00:50:31
Источник (релизер): opeth
Наличие сканов в содержимом раздачи: да
Треклист:
01. Vira Poeira Burning To Dust [04:47]
02. Come As You Are [04:45]
03. 700 Years [04:38]
04. After These Messages [03:03]
05. Street Vendors D'JMBO [05:02]
06. Wake Up Now [04:16]
07. Homeless Around The Fire [06:19]
08. Samba 4 Sale [06:59]
09. Ginga Sem Fronteira [05:57]
10. The Last One [04:41]
 
Лог создания рипа
Exact Audio Copy V1.0 beta 2 from 29. April 2011
EAC extraction logfile from 16. June 2013, 6:45
Airto Moreira / Homeless
Used drive : PLDS DVD+-RW DS-8A5SH Adapter: 0 ID: 0
Read mode : Secure
Utilize accurate stream : Yes
Defeat audio cache : Yes
Make use of C2 pointers : No
Read offset correction : 6
Overread into Lead-In and Lead-Out : No
Fill up missing offset samples with silence : Yes
Delete leading and trailing silent blocks : No
Null samples used in CRC calculations : Yes
Used interface : Native Win32 interface for Win NT & 2000
Gap handling : Appended to previous track
Used output format : User Defined Encoder
Selected bitrate : 256 kBit/s
Quality : High
Add ID3 tag : No
Command line compressor : C:\Program Files (x86)\Exact Audio Copy\FLAC\FLAC.EXE
Additional command line options : -6 -V -T "ARTIST=%artist%" -T "TITLE=%title%" -T "ALBUM=%albumtitle%" -T "DATE=%year%" -T "TRACKNUMBER=%tracknr%" -T "GENRE=%genre%" -T "COMMENT=%comment%" -T "BAND=%albuminterpret%" -T "COMPOSER=%composer%" %haslyrics%--ta
TOC of the extracted CD
Track | Start | Length | Start sector | End sector
---------------------------------------------------------
1 | 0:00.00 | 4:47.00 | 0 | 21524
2 | 4:47.00 | 4:45.62 | 21525 | 42961
3 | 9:32.62 | 4:38.38 | 42962 | 63849
4 | 14:11.25 | 3:03.25 | 63850 | 77599
5 | 17:14.50 | 5:02.40 | 77600 | 100289
6 | 22:17.15 | 4:16.05 | 100290 | 119494
7 | 26:33.20 | 6:19.22 | 119495 | 147941
8 | 32:52.42 | 6:59.15 | 147942 | 179381
9 | 39:51.57 | 5:57.43 | 179382 | 206199
10 | 45:49.25 | 4:41.69 | 206200 | 227343
Track 1
Filename C:\Users\porcupine\Desktop\EAC\01 - Vira Poeira Burning To Dust.wav
Pre-gap length 0:00:02.00
Peak level 99.9 %
Extraction speed 2.7 X
Track quality 100.0 %
Test CRC AC2A5899
Copy CRC AC2A5899
Accurately ripped (confidence 2) [AB0300E9] (AR v1)
Copy OK
Track 2
Filename C:\Users\porcupine\Desktop\EAC\02 - Come As You Are.wav
Pre-gap length 0:00:00.13
Peak level 99.9 %
Extraction speed 2.6 X
Track quality 99.9 %
Test CRC E5C95B62
Copy CRC E5C95B62
Accurately ripped (confidence 2) [931936AF] (AR v1)
Copy OK
Track 3
Filename C:\Users\porcupine\Desktop\EAC\03 - 700 Years.wav
Pre-gap length 0:00:01.26
Peak level 89.3 %
Extraction speed 3.3 X
Track quality 100.0 %
Test CRC 12FCFF11
Copy CRC 12FCFF11
Accurately ripped (confidence 2) [E1E9C359] (AR v1)
Copy OK
Track 4
Filename C:\Users\porcupine\Desktop\EAC\04 - After These Messages.wav
Peak level 96.6 %
Extraction speed 3.3 X
Track quality 100.0 %
Test CRC 8003A29F
Copy CRC 8003A29F
Accurately ripped (confidence 2) [EF573722] (AR v1)
Copy OK
Track 5
Filename C:\Users\porcupine\Desktop\EAC\05 - Street Vendors D'JMBO.wav
Pre-gap length 0:00:00.08
Peak level 95.3 %
Extraction speed 3.7 X
Track quality 100.0 %
Test CRC A1727D96
Copy CRC A1727D96
Accurately ripped (confidence 2) [905E2873] (AR v1)
Copy OK
Track 6
Filename C:\Users\porcupine\Desktop\EAC\06 - Wake Up Now.wav
Pre-gap length 0:00:00.01
Peak level 100.0 %
Extraction speed 3.9 X
Track quality 100.0 %
Test CRC 7AE877C2
Copy CRC 7AE877C2
Accurately ripped (confidence 2) [63629E3B] (AR v1)
Copy OK
Track 7
Filename C:\Users\porcupine\Desktop\EAC\07 - Homeless Around The Fire.wav
Pre-gap length 0:00:01.50
Peak level 98.1 %
Extraction speed 4.3 X
Track quality 100.0 %
Test CRC 45409166
Copy CRC 45409166
Accurately ripped (confidence 2) [A7506228] (AR v1)
Copy OK
Track 8
Filename C:\Users\porcupine\Desktop\EAC\08 - Samba 4 Sale.wav
Pre-gap length 0:00:00.71
Peak level 100.0 %
Extraction speed 4.6 X
Track quality 100.0 %
Test CRC 8570D8F1
Copy CRC 8570D8F1
Accurately ripped (confidence 2) [A6E444BE] (AR v1)
Copy OK
Track 9
Filename C:\Users\porcupine\Desktop\EAC\09 - Ginga Sem Fronteira.wav
Pre-gap length 0:00:00.67
Peak level 95.4 %
Extraction speed 4.3 X
Track quality 99.9 %
Test CRC 03CBA0F9
Copy CRC 03CBA0F9
Accurately ripped (confidence 2) [F195231D] (AR v1)
Copy OK
Track 10
Filename C:\Users\porcupine\Desktop\EAC\10 - The Last One.wav
Pre-gap length 0:00:01.50
Peak level 100.0 %
Extraction speed 4.9 X
Track quality 100.0 %
Test CRC 8D964927
Copy CRC 8D964927
Accurately ripped (confidence 2) [DCAE70FE] (AR v1)
Copy OK
All tracks accurately ripped
No errors occurred
End of status report
==== Log checksum 61DA96F584FEB5AC820DA6B1DFFC7C6312AEE26E04094ECBF4845E9BDA1A6C0E ====
 
Содержание индексной карты (.CUE)
REM GENRE Latin
REM DATE 2000
REM DISCID 980BD70A
REM COMMENT "ExactAudioCopy v1.0b2"
PERFORMER "Airto Moreira"
TITLE "Homeless"
FILE "01 - Vira Poeira Burning To Dust.wav" WAVE
TRACK 01 AUDIO
TITLE "Vira Poeira Burning To Dust"
PERFORMER "Airto Moreira"
INDEX 01 00:00:00
TRACK 02 AUDIO
TITLE "Come As You Are"
PERFORMER "Airto Moreira"
INDEX 00 04:46:62
FILE "02 - Come As You Are.wav" WAVE
INDEX 01 00:00:00
TRACK 03 AUDIO
TITLE "700 Years"
PERFORMER "Airto Moreira"
INDEX 00 04:44:36
FILE "03 - 700 Years.wav" WAVE
INDEX 01 00:00:00
FILE "04 - After These Messages.wav" WAVE
TRACK 04 AUDIO
TITLE "After These Messages"
PERFORMER "Airto Moreira"
INDEX 01 00:00:00
TRACK 05 AUDIO
TITLE "Street Vendors D'JMBO"
PERFORMER "Airto Moreira"
INDEX 00 03:03:17
FILE "05 - Street Vendors D'JMBO.wav" WAVE
INDEX 01 00:00:00
TRACK 06 AUDIO
TITLE "Wake Up Now"
PERFORMER "Airto Moreira"
INDEX 00 05:02:39
FILE "06 - Wake Up Now.wav" WAVE
INDEX 01 00:00:00
TRACK 07 AUDIO
TITLE "Homeless Around The Fire"
PERFORMER "Airto Moreira"
INDEX 00 04:14:30
FILE "07 - Homeless Around The Fire.wav" WAVE
INDEX 01 00:00:00
TRACK 08 AUDIO
TITLE "Samba 4 Sale"
PERFORMER "Airto Moreira"
INDEX 00 06:18:26
FILE "08 - Samba 4 Sale.wav" WAVE
INDEX 01 00:00:00
TRACK 09 AUDIO
TITLE "Ginga Sem Fronteira"
PERFORMER "Airto Moreira"
INDEX 00 06:58:23
FILE "09 - Ginga Sem Fronteira.wav" WAVE
INDEX 01 00:00:00
TRACK 10 AUDIO
TITLE "The Last One"
PERFORMER "Airto Moreira"
INDEX 00 05:55:68
FILE "10 - The Last One.wav" WAVE
INDEX 01 00:00:00
 
Состав
Airto Moreira - drums, percussion, lead and background vocals, wooden flutes
Flora Purim - vocals, background vocals
Gary Brown - bass
Pablo Silva - drums, percussion
Amen Santos - percussion
Changuito - drums
Jose Neto - guitar
DB aka Decibel - lead and background vocals
Meia Noite - drums, percussion
Giovanni Hidalgo - percussion
Freddie Santiago - percussion
11:33
636
Нет комментариев. Ваш будет первым!