Вы используете незарегистрированную версию компонента "Вкладки"!

Поиск

(avant-garde jazz/jazz-rock) Kami Quintet # 2 - Human Spirals - 2011, (tracks+.cue), lossless

(avant-garde jazz/jazz-rock) Kami Quintet # 2 - Human Spirals - 2011, (tracks+.cue), lossless
Треклист:
Kami Quintet # 2 / Human Spirals
Жанр: avant-garde jazz/jazz-rock
Страна-производитель диска: France
Год издания: 2011
Издатель (лейбл): Allumes Du Jazz
Номер по каталогу: AJM21
Страна: France
Аудиокодек: FLAC (*.flac)
Тип рипа: tracks+.cue
Битрейт аудио: lossless
Продолжительность: 51:22
Источник (релизер): собственный рип
Наличие сканов в содержимом раздачи: да
Треклист:
1. spirale 1 (part 1)
2. spirale 1 (part 2)
3. spirale 2
4. la caresse du present
5. spirale 5 6. la marche
7. lentement
8. spirale 6
 
Лог создания рипа
Exact Audio Copy V1.0 beta 3 from 29. August 2011
EAC extraction logfile from 28. March 2012, 20:57
Kami Quintet #2 / Human Spirale
Used drive : Optiarc DVD RW AD-7243S Adapter: 0 ID: 1
Read mode : Secure
Utilize accurate stream : Yes
Defeat audio cache : Yes
Make use of C2 pointers : No
Read offset correction : 48
Overread into Lead-In and Lead-Out : No
Fill up missing offset samples with silence : Yes
Delete leading and trailing silent blocks : No
Null samples used in CRC calculations : Yes
Used interface : Native Win32 interface for Win NT & 2000
Gap handling : Appended to previous track
Used output format : User Defined Encoder
Selected bitrate : 128 kBit/s
Quality : High
Add ID3 tag : No
Command line compressor : C:\Program Files\Exact Audio Copy\FLAC\FLAC.EXE
Additional command line options : V -8 -T "Date=%year%" -T "Genre=%genre%" %source%
TOC of the extracted CD
Track | Start | Length | Start sector | End sector
---------------------------------------------------------
1 | 0:00.00 | 8:55.56 | 0 | 40180
2 | 8:55.56 | 5:13.72 | 40181 | 63727
3 | 14:09.53 | 5:16.51 | 63728 | 87478
4 | 19:26.29 | 9:40.66 | 87479 | 131044
5 | 29:07.20 | 6:09.09 | 131045 | 158728
6 | 35:16.29 | 5:32.20 | 158729 | 183648
7 | 40:48.49 | 7:00.30 | 183649 | 215178
8 | 47:49.04 | 5:08.64 | 215179 | 238342
Track 1
Filename C:\Documents and Settings\S\Мои документы\Torrent раздача\01 Spirale 1 Pt 1.wav
Pre-gap length 0:00:02.00
Peak level 98.8 %
Extraction speed 2.6 X
Track quality 100.0 %
Test CRC F165508F
Copy CRC F165508F
Track not present in AccurateRip database
Copy OK
Track 2
Filename C:\Documents and Settings\S\Мои документы\Torrent раздача\02 Spirale 1 Pt 2.wav
Peak level 98.8 %
Extraction speed 2.9 X
Track quality 100.0 %
Test CRC C8A3C199
Copy CRC C8A3C199
Track not present in AccurateRip database
Copy OK
Track 3
Filename C:\Documents and Settings\S\Мои документы\Torrent раздача\03 Spirale 2.wav
Peak level 98.8 %
Extraction speed 3.2 X
Track quality 100.0 %
Test CRC 8213301D
Copy CRC 8213301D
Track not present in AccurateRip database
Copy OK
Track 4
Filename C:\Documents and Settings\S\Мои документы\Torrent раздача\04 La Caresse du Prйsent.wav
Peak level 98.9 %
Extraction speed 3.8 X
Track quality 100.0 %
Test CRC 8FC75104
Copy CRC 8FC75104
Track not present in AccurateRip database
Copy OK
Track 5
Filename C:\Documents and Settings\S\Мои документы\Torrent раздача\05 Spirale 5.wav
Peak level 98.8 %
Extraction speed 4.0 X
Track quality 100.0 %
Test CRC 5148452C
Copy CRC 5148452C
Track not present in AccurateRip database
Copy OK
Track 6
Filename C:\Documents and Settings\S\Мои документы\Torrent раздача\06 La marche.wav
Peak level 98.8 %
Extraction speed 4.2 X
Track quality 100.0 %
Test CRC 2CBDC823
Copy CRC 2CBDC823
Track not present in AccurateRip database
Copy OK
Track 7
Filename C:\Documents and Settings\S\Мои документы\Torrent раздача\07 Lentement.wav
Peak level 98.8 %
Extraction speed 4.5 X
Track quality 100.0 %
Test CRC 5E7A949A
Copy CRC 5E7A949A
Track not present in AccurateRip database
Copy OK
Track 8
Filename C:\Documents and Settings\S\Мои документы\Torrent раздача\08 Spirale 6.wav
Peak level 98.8 %
Extraction speed 4.6 X
Track quality 100.0 %
Test CRC 82EBD8F5
Copy CRC 82EBD8F5
Track not present in AccurateRip database
Copy OK
None of the tracks are present in the AccurateRip database
No errors occurred
End of status report
==== Log checksum 0A4ECA7DA4ECE36A84E7231790E0A20B20082A265517890A9A144F57E434F936 ====
 
Содержание индексной карты (.CUE)
REM GENRE Avantgarde
REM DATE 2011
REM DISCID 6D0C6908
REM COMMENT "ExactAudioCopy v1.0b3"
PERFORMER "Kami Quintet #2"
TITLE "Human Spirale"
FILE "01 Spirale 1 Pt 1.wav" WAVE
TRACK 01 AUDIO
TITLE "Spirale 1 Pt 1"
PERFORMER " "
ISRC FR96Y1102101
INDEX 01 00:00:00
FILE "02 Spirale 1 Pt 2.wav" WAVE
TRACK 02 AUDIO
TITLE "Spirale 1 Pt 2"
PERFORMER " "
ISRC FR96Y1102102
INDEX 01 00:00:00
FILE "03 Spirale 2.wav" WAVE
TRACK 03 AUDIO
TITLE "Spirale 2"
PERFORMER " "
ISRC FR96Y1102103
INDEX 01 00:00:00
FILE "04 La Caresse du Prйsent.wav" WAVE
TRACK 04 AUDIO
TITLE "La Caresse du Prйsent"
PERFORMER " "
ISRC FR96Y1102104
INDEX 01 00:00:00
FILE "05 Spirale 5.wav" WAVE
TRACK 05 AUDIO
TITLE "Spirale 5"
PERFORMER " "
ISRC FR96Y1102105
INDEX 01 00:00:00
FILE "06 La marche.wav" WAVE
TRACK 06 AUDIO
TITLE "La marche"
PERFORMER " "
ISRC FR96Y1102106
INDEX 01 00:00:00
FILE "07 Lentement.wav" WAVE
TRACK 07 AUDIO
TITLE "Lentement"
PERFORMER " "
ISRC FR96Y1102107
INDEX 01 00:00:00
FILE "08 Spirale 6.wav" WAVE
TRACK 08 AUDIO
TITLE "Spirale 6"
PERFORMER " "
ISRC FR96Y1102108
INDEX 01 00:00:00
 
Состав
p. charrier - guitares
j. mouriez - batterie
d. frangulian - basse
j. soro - sax
b. ballaz - trombone
Any questions -> support@pro-jazz.com. По всем вопросам пишите -> support@pro-jazz.com
04:13
176
Нет комментариев. Ваш будет первым!