Вы используете незарегистрированную версию компонента "Вкладки"!

Поиск

(avant-garde jazz/contemporary jazz) Dead Cat Bounce - Chance Episode - 2011, (image+.cue), lossless

(avant-garde jazz/contemporary jazz) Dead Cat Bounce - Chance Episode - 2011, (image+.cue), lossless
Треклист:
Dead Cat Bounce / Chance Episode
Жанр: avant-garde jazz/contemporary jazz
Страна-производитель диска: USA
Год издания: 2011
Издатель (лейбл): Cuneiform Records
Номер по каталогу: Rune323
Страна: USA
Аудиокодек: FLAC (*.flac)
Тип рипа: image+.cue
Битрейт аудио: lossless
Продолжительность: 69:59
Источник (релизер): собственный рип
Наличие сканов в содержимом раздачи: да
Треклист:
1. food blooger
2. tourvan confessin
3. far from the matty crowd
4. salon sound journal
5. bio dyno man
6. silenti movie, russia 1995
7. walkins glen
8. salvation & doubt
9. township jive revisited
10. madame bonsilene
11. living the dream
 
Лог создания рипа
Exact Audio Copy V1.0 beta 3 from 29. August 2011
EAC extraction logfile from 9. October 2012, 10:30
Dead Cat Bounce / Chance Episodes
Used drive : Optiarc DVD RW AD-7243S Adapter: 0 ID: 1
Read mode : Secure
Utilize accurate stream : Yes
Defeat audio cache : Yes
Make use of C2 pointers : No
Read offset correction : 48
Overread into Lead-In and Lead-Out : No
Fill up missing offset samples with silence : Yes
Delete leading and trailing silent blocks : No
Null samples used in CRC calculations : Yes
Used interface : Native Win32 interface for Win NT & 2000
Used output format : User Defined Encoder
Selected bitrate : 128 kBit/s
Quality : High
Add ID3 tag : No
Command line compressor : C:\Program Files\Exact Audio Copy\FLAC\FLAC.EXE
Additional command line options : V -8 -T "Date=%year%" -T "Genre=%genre%" %source%
TOC of the extracted CD
Track | Start | Length | Start sector | End sector
---------------------------------------------------------
1 | 0:00.00 | 6:52.24 | 0 | 30923
2 | 6:52.24 | 6:07.40 | 30924 | 58488
3 | 12:59.64 | 8:41.23 | 58489 | 97586
4 | 21:41.12 | 6:31.37 | 97587 | 126948
5 | 28:12.49 | 7:42.64 | 126949 | 161662
6 | 35:55.38 | 7:55.36 | 161663 | 197323
7 | 43:50.74 | 4:08.28 | 197324 | 215951
8 | 47:59.27 | 6:06.47 | 215952 | 243448
9 | 54:05.74 | 6:08.14 | 243449 | 271062
10 | 60:14.13 | 3:17.58 | 271063 | 285895
11 | 63:31.71 | 8:10.69 | 285896 | 322714
Range status and errors
Selected range
Filename C:\Documents and Settings\S\Мои документы\Torrent раздача\Dead Cat Bounce - Chance Episodes.wav
Peak level 97.6 %
Extraction speed 4.2 X
Range quality 100.0 %
Test CRC 64382164
Copy CRC 64382164
Copy OK
No errors occurred
AccurateRip summary
Track 1 not present in database
Track 2 not present in database
Track 3 not present in database
Track 4 not present in database
Track 5 not present in database
Track 6 not present in database
Track 7 not present in database
Track 8 not present in database
Track 9 not present in database
Track 10 not present in database
Track 11 not present in database
None of the tracks are present in the AccurateRip database
End of status report
==== Log checksum 8825033B43617C83EA8684965366DB390841BB8A4F86FF32029FE9DEDA3795C9 ====
 
Содержание индексной карты (.CUE)
REM GENRE Jazz
REM DATE 2011
REM DISCID 9410CE0B
REM COMMENT "ExactAudioCopy v1.0b3"
CATALOG 0045775032320
PERFORMER "Dead Cat Bounce"
TITLE "Chance Episodes"
FILE "Dead Cat Bounce - Chance Episodes.flac" WAVE
TRACK 01 AUDIO
TITLE "Food Blogger"
PERFORMER "Dead Cat Bounce"
ISRC US9351132301
FLAGS DCP
INDEX 01 00:00:00
TRACK 02 AUDIO
TITLE "Tour Van"
PERFORMER "Dead Cat Bounce"
ISRC US9351132302
FLAGS DCP
INDEX 01 06:52:24
TRACK 03 AUDIO
TITLE "Far From The Matty Crowd"
PERFORMER "Dead Cat Bounce"
ISRC US9351132303
FLAGS DCP
INDEX 01 12:59:64
TRACK 04 AUDIO
TITLE "Salon Sound Journal"
PERFORMER "Dead Cat Bounce"
ISRC US9351132304
FLAGS DCP
INDEX 01 21:41:12
TRACK 05 AUDIO
TITLE "Bio Dyno Man"
PERFORMER "Dead Cat Bounce"
ISRC US9351132305
FLAGS DCP
INDEX 01 28:12:49
TRACK 06 AUDIO
TITLE "Silent Movie: Russia, 1995"
PERFORMER "Dead Cat Bounce"
ISRC US9351132306
FLAGS DCP
INDEX 01 35:55:38
TRACK 07 AUDIO
TITLE "Watkins Glen"
PERFORMER "Dead Cat Bounce"
ISRC US9351132307
FLAGS DCP
INDEX 01 43:50:74
TRACK 08 AUDIO
TITLE "Salvation & Doubt"
PERFORMER "Dead Cat Bounce"
ISRC US9351132308
FLAGS DCP
INDEX 01 47:59:27
TRACK 09 AUDIO
TITLE "Township Jive Revisited"
PERFORMER "Dead Cat Bounce"
ISRC US9351132309
FLAGS DCP
INDEX 01 54:05:74
TRACK 10 AUDIO
TITLE "Madame Bonsiliene"
PERFORMER "Dead Cat Bounce"
ISRC US9351132310
FLAGS DCP
INDEX 01 60:14:13
TRACK 11 AUDIO
TITLE "Living The Dream"
PERFORMER "Dead Cat Bounce"
ISRC US9351132311
FLAGS DCP
INDEX 01 63:31:71
 
Состав
saxes and woodwinds - matt steckler
jared sims
terry goss
charlie kohlhase
upright bass - dave ambrosio
drums - bill carbone
Any questions -> support@pro-jazz.com. По всем вопросам пишите -> support@pro-jazz.com
04:14
154
Нет комментариев. Ваш будет первым!