Поиск

(Avant-Garde, Free Improvisation) Joseph Jarman & Famoudou Don Moye (In Concert) - Egwu-Anwu (Sun Song) (Live) (2CDs) - 1997 (1978), (image+.cue), lossless

(Avant-Garde, Free Improvisation) Joseph Jarman & Famoudou Don Moye (In Concert) - Egwu-Anwu (Sun Song) (Live) (2CDs) - 1997 (1978), (image+.cue), lossless
Треклист:
Joseph Jarman & Famoudou Don Moye (In Concert) - Egwu-Anwu (Sun Song) (Live) (2CDs)
Жанр: Avant-Garde, Free Improvisation
Страна-производитель диска: USA
Год издания: 1997 (1978)
Издатель (лейбл): India Navigation Company
Номер по каталогу: IN 1033 CD
Страна: USA
Аудиокодек: FLAC (*.flac)
Тип рипа: image+.cue
Битрейт аудио: lossless
Продолжительность: 44:42 + 40:20 (1:25:02)
Источник (релизер): ivoronen
Наличие сканов в содержимом раздачи: front scan only
Треклист:
Disc 1
1. Enu-Igwe (The Heavens) part 1 - Egwu-Yesi Kipaleta
2. Enu-Igwe (The Heavens) part 2 - Eqwu Jilala / Egwu Ping
3. Nanke Ala (And the Earth) - Ikpa-Azu: Ohnedaruth
Disc 2
1. Nke Ala (The Earth) part 1 - Eqwu-Erosora Ekou Katah
2. Nke Ala (The Earth) part 2 - Egwu-Tombong Goudiaby
3. Nke Ala (The Earth) part 3 - Egwu Ogotemmeli
4. Na Enu Igwe (And the Heavens) - Lobo / Ekpokpona-Ye Fai
Joseph Jarman - tenor and alto saxophones, sopranino, flutes, bass clarinet, conch, and vibraphone
Famoudou Don Moye - drums and other percussion, bailophone, conch, whistles, horns, and marimba
At the time of recording, both artists were members of the Art Ensemble of Chicago.
This performance was recorded in concert at Woodstock, New York.
(p)(c) 1978, 1997 India Navigation Company
 
Лог создания рипа - CD1
Exact Audio Copy V0.99 prebeta 4 from 23. January 2008
EAC extraction logfile from 14. May 2008, 20:38
Joseph Jarman / Famoudou Don Moye / Egwu-Anwu (Sun Song) (Disc 1)
Used drive : TSSTcorpCD/DVDW SH-S182M Adapter: 2 ID: 0
Read mode : Secure
Utilize accurate stream : Yes
Defeat audio cache : Yes
Make use of C2 pointers : No
Read offset correction : 6
Overread into Lead-In and Lead-Out : No
Fill up missing offset samples with silence : Yes
Delete leading and trailing silent blocks : No
Null samples used in CRC calculations : No
Used interface : Installed external ASPI interface
Used output format : User Defined Encoder
Selected bitrate : 1024 kBit/s
Quality : High
Add ID3 tag : No
Command line compressor : C:\Program Files\Exact Audio Copy\FLAC\FLAC.EXE
Additional command line options : -6 -V -T "ARTIST=%a" -T "TITLE=%t" -T "ALBUM=%g" -T "DATE=%y" -T "TRACKNUMBER=%n" -T "GENRE=%m" -T "COMMENT=%e" %s -o %d
TOC of the extracted CD
Track | Start | Length | Start sector | End sector
---------------------------------------------------------
1 | 0:00.00 | 1:55.49 | 0 | 8673
2 | 1:55.49 | 21:32.00 | 8674 | 105573
3 | 23:27.49 | 21:14.00 | 105574 | 201123
Range status and errors
Selected range
Filename F:\z\Joseph Jarman & Famoudou Don Moye - Egwu-Anwu (Sun Song) (Disc 1).wav
Peak level 92.8 %
Range quality 100.0 %
Copy CRC C77DD2FA
Copy OK
No errors occurred
AccurateRip summary
Track 1 not present in database
Track 2 not present in database
Track 3 not present in database
None of the tracks are present in the AccurateRip database
End of status report
 
Содержание индексной карты (.CUE) - CD1
REM GENRE Jazz
REM DATE 1978
REM DISCID 190A7903
REM COMMENT "ExactAudioCopy v0.99pb4"
PERFORMER "Joseph Jarman / Famoudou Don Moye"
TITLE "Egwu-Anwu (Sun Song) (Disc 1)"
FILE "Joseph Jarman & Famoudou Don Moye - Egwu-Anwu (Sun Song) (Disc 1).flac" WAVE
TRACK 01 AUDIO
TITLE "Enu-Igwe (The Heavens) part 1: Egwu-Yesi Kipaleta"
PERFORMER "Joseph Jarman / Famoudou Don Moye"
INDEX 01 00:00:00
TRACK 02 AUDIO
TITLE "Enu-Igwe (The Heavens) part 2: Eqwu Jilala / Egwu Ping"
PERFORMER "Joseph Jarman / Famoudou Don Moye"
INDEX 00 01:52:65
INDEX 01 01:55:49
TRACK 03 AUDIO
TITLE "Nanke Ala (And the Earth)"
PERFORMER "Joseph Jarman / Famoudou Don Moye"
INDEX 00 23:24:64
INDEX 01 23:27:49
 
Лог создания рипа - CD2
Exact Audio Copy V0.99 prebeta 4 from 23. January 2008
EAC extraction logfile from 14. May 2008, 20:23
Joseph Jarman / Famoudou Don Moye / Egwu-Anwu (Sun Song) (Disc 2)
Used drive : TSSTcorpCD/DVDW SH-S182M Adapter: 2 ID: 0
Read mode : Secure
Utilize accurate stream : Yes
Defeat audio cache : Yes
Make use of C2 pointers : No
Read offset correction : 6
Overread into Lead-In and Lead-Out : No
Fill up missing offset samples with silence : Yes
Delete leading and trailing silent blocks : No
Null samples used in CRC calculations : No
Used interface : Installed external ASPI interface
Used output format : User Defined Encoder
Selected bitrate : 1024 kBit/s
Quality : High
Add ID3 tag : No
Command line compressor : C:\Program Files\Exact Audio Copy\FLAC\FLAC.EXE
Additional command line options : -6 -V -T "ARTIST=%a" -T "TITLE=%t" -T "ALBUM=%g" -T "DATE=%y" -T "TRACKNUMBER=%n" -T "GENRE=%m" -T "COMMENT=%e" %s -o %d
TOC of the extracted CD
Track | Start | Length | Start sector | End sector
---------------------------------------------------------
1 | 0:00.00 | 6:50.62 | 0 | 30811
2 | 6:50.62 | 6:34.02 | 30812 | 60363
3 | 13:24.64 | 6:58.25 | 60364 | 91738
4 | 20:23.14 | 19:56.41 | 91739 | 181479
Range status and errors
Selected range
Filename F:\z\Joseph Jarman & Famoudou Don Moye - Egwu-Anwu (Sun Song) (Disc 2).wav
Peak level 85.2 %
Range quality 99.9 %
Copy CRC C9039B97
Copy OK
No errors occurred
AccurateRip summary
Track 1 not present in database
Track 2 not present in database
Track 3 not present in database
Track 4 not present in database
None of the tracks are present in the AccurateRip database
End of status report
 
Содержание индексной карты (.CUE) - CD2
REM GENRE Jazz
REM DATE 1978
REM DISCID 21097304
REM COMMENT "ExactAudioCopy v0.99pb4"
PERFORMER "Joseph Jarman / Famoudou Don Moye"
TITLE "Egwu-Anwu (Sun Song) (Disc 2)"
FILE "Joseph Jarman & Famoudou Don Moye - Egwu-Anwu (Sun Song) (Disc 2).flac" WAVE
TRACK 01 AUDIO
TITLE "Nke Ala (The Earth) part 1: Eqwu-Erosora Ekou Katah"
PERFORMER "Joseph Jarman / Famoudou Don Moye"
INDEX 01 00:00:00
TRACK 02 AUDIO
TITLE "Nke Ala (The Earth) part 2: Egwu-Tombong Goudiaby"
PERFORMER "Joseph Jarman / Famoudou Don Moye"
INDEX 00 06:48:03
INDEX 01 06:50:62
TRACK 03 AUDIO
TITLE "Nke Ala (The Earth) part 3: Egwu Ogotemmeli"
PERFORMER "Joseph Jarman / Famoudou Don Moye"
INDEX 00 13:22:05
INDEX 01 13:24:64
TRACK 04 AUDIO
TITLE "Na Enu Igwe (And the Heavens)"
PERFORMER "Joseph Jarman / Famoudou Don Moye"
INDEX 00 20:20:30
INDEX 01 20:23:14
 
Press
"A miraculous record" - Village Voice
"Makes you want to dance" - Downbeat
 
Back
04:13
678
Нет комментариев. Ваш будет первым!