Вы используете незарегистрированную версию компонента "Вкладки"!

Поиск

(Avant-Garde Jazz/Fusion) Joe Henderson & Alice Coltrane - The Elements - 1996, FLAC (image+.cue), lossless

(Avant-Garde Jazz/Fusion) Joe Henderson & Alice Coltrane - The Elements - 1996, FLAC (image+.cue), lossless
Треклист:
Joe Henderson & Alice Coltrane - The Elements
Жанр: Avant-Garde Jazz/Fusion
Год выпуска диска: 1996
Производитель диска: Milestone/OJC
Аудио кодек: FLAC
Тип рипа: image+.cue
Битрейт аудио: lossless
Продолжительность: 41:44
Источник: HQShare
Трэклист:
1. Fire (Henderson) 11:07
2. Air (Henderson) 9:53
3. Water (Henderson) 7:27
4. Earth (Henderson) 13:07
Joe Henderson (tenor saxophone, flute, alto flute, piano)
Alice Coltrane (harp, piano, harmonium, tamboura)
Michael White (violin)
Charlie Haden (bass)
Ndugu Chancler (drums)
Baba Daru Oshun (tabla, percussion)
Kenneth Nash (spoken vocals, wood flute, congas, sakara drum, bells, gongs, percussion)
Recorded at Village Recorders, Los Angeles, California from October 15-17, 1973
Digitally remastered by Joe Tarantino (1996, Fantasy Studios, Berkeley)
 
Лог ЕАС
Exact Audio Copy V0.99 prebeta 4 from 23. January 2008
------------------------------------------------------
EAC extraction logfile from 23. April 2008, 20:35
Joe Henderson and Alice Coltrane / The Elements
Used drive : IDE-DVD ROM 6116 Adapter: 4 ID: 1
Read mode : Secure
Utilize accurate stream : Yes
Defeat audio cache : Yes
Make use of C2 pointers : No
Read offset correction : 691
Overread into Lead-In and Lead-Out : No
Fill up missing offset samples with silence : Yes
Delete leading and trailing silent blocks : No
Null samples used in CRC calculations : Yes
Used interface : Installed external ASPI interface
Used output format : User Defined Encoder
Selected bitrate : 768 kBit/s
Quality : High
Add ID3 tag : No
Command line compressor : C:\Program Files\Exact Audio Copy\FLAC\FLAC.EXE
Additional command line options : -6 -V -T "ARTIST=%a" -T "TITLE=%t" -T "ALBUM=%g" -T "DATE=%y" -T "TRACKNUMBER=%n" -T "GENRE=%m" -T "COMMENT=%e" %s -o %d
TOC of the extracted CD
Track | Start | Length | Start sector | End sector
---------------------------------------------------------
1 | 0:00.00 | 11:08.42 | 0 | 50141
2 | 11:08.42 | 9:56.23 | 50142 | 94864
3 | 21:04.65 | 7:31.25 | 94865 | 128714
4 | 28:36.15 | 13:07.40 | 128715 | 187779
Range status and errors
Selected range
Filename C:\Documents and Settings\Upload\Joe Henderson feat. Alice Coltrane - the Elements\flac\Joe Henderson and Alice Coltrane - The Elements.wav
Peak level 100.0 %
Range quality 100.0 %
Copy CRC 888719CC
Copy OK
No errors occurred
End of status report
 
Audiochecker
AUDIOCHECKER v2.0 beta (build 457) - by Dester - opdester@freemail.hu
~~~~~~~~~~~~~~~~~~~~~~~~~~~~~~~~~~
-----------------------------------------------------------
Начато: суббота, 28. 03. 2009. - 18:44.13
Найдено файлов: 1
1 -===- E:\torrent\music\Joe Henderson & Alice Coltrane - The Elements\Joe Henderson and Alice Coltrane - The Elements.flac
Извлечение успешно выполнено
Заключение: этот трек - CDDA с вероятностью 100%
Временный файл удалён.
Завершено: суббота, 28. 03. 2009. - 18:48.59 (Время операции: 0:04.46)
-----------------------------------------------------------
 
Audition
По всем вопросам пишите личное сообщение пользователю M0p94ok.
09:28
432
Нет комментариев. Ваш будет первым!