Вы используете незарегистрированную версию компонента "Вкладки"!

Поиск

(Modern Creative / Avant-Garde) Mario Pavone - Song for (Septet) - 1994, FLAC (image+.cue), lossless

(Modern Creative / Avant-Garde) Mario Pavone - Song for (Septet) - 1994, FLAC (image+.cue), lossless
Треклист:
Mario Pavone - Song for (Septet)
Жанр: Modern Creative / Avant-Garde
Год выпуска диска: 1994
Производитель диска: USA (New World Records 80252-2)
Аудио кодек: FLAC
Тип рипа: image+.cue
Битрейт аудио: lossless
Продолжительность: 50:22
Mario Pavone bass
Marty Ehrlich alto saxophone, clarinet, bass clarinet
Thomas Chapin alto saxophone, flute
Peter McEachern trombone
Bill Ware vibraphone
Peter Madsen piano
Steve Johns drums
1. George on Avenue A
2. 3 M Blues
3. Dance Off
4. Chapulines
5. Song For M
6. Ciro (for Nick)
7. The Door
8. B Count
 
EAC Report
Exact Audio Copy V0.99 prebeta 4 from 23. January 2008
EAC extraction logfile from 10. March 2009, 23:50
Mario Pavone / Song for (Septet)
Used drive : TSSTcorpCD/DVDW SH-S182M Adapter: 2 ID: 1
Read mode : Secure
Utilize accurate stream : Yes
Defeat audio cache : Yes
Make use of C2 pointers : No
Read offset correction : 6
Overread into Lead-In and Lead-Out : No
Fill up missing offset samples with silence : Yes
Delete leading and trailing silent blocks : No
Null samples used in CRC calculations : Yes
Used interface : Installed external ASPI interface
Used output format : User Defined Encoder
Selected bitrate : 1024 kBit/s
Quality : High
Add ID3 tag : No
Command line compressor : C:\Program Files\Exact Audio Copy\FLAC\FLAC.EXE
Additional command line options : -8 -V -T "ARTIST=%a" -T "TITLE=%t" -T "ALBUM=%g" -T "DATE=%y" -T "TRACKNUMBER=%n" -T "GENRE=%m" -T "COMMENT=%e" %s -o %d
TOC of the extracted CD
Track | Start | Length | Start sector | End sector
---------------------------------------------------------
1 | 0:00.00 | 7:51.13 | 0 | 35337
2 | 7:51.13 | 7:04.32 | 35338 | 67169
3 | 14:55.45 | 6:28.33 | 67170 | 96302
4 | 21:24.03 | 4:38.27 | 96303 | 117179
5 | 26:02.30 | 6:41.43 | 117180 | 147297
6 | 32:43.73 | 5:43.40 | 147298 | 173062
7 | 38:27.38 | 5:32.00 | 173063 | 197962
8 | 43:59.38 | 6:22.45 | 197963 | 226657
Range status and errors
Selected range
Filename C:\Documents and Settings\Igor\My Documents\My Music\eac\Mario Pavone - Song for (Septet).wav
Peak level 100.0 %
Range quality 99.9 %
Test CRC 3EB3D401
Copy CRC 3EB3D401
Copy OK
No errors occurred
AccurateRip summary
Track 1 accurately ripped (confidence 2) [38771881]
Track 2 accurately ripped (confidence 2) [14339257]
Track 3 accurately ripped (confidence 2) [D7F9F3AC]
Track 4 accurately ripped (confidence 2) [854042D5]
Track 5 accurately ripped (confidence 2) [17A17E4F]
Track 6 accurately ripped (confidence 2) [E641F22F]
Track 7 accurately ripped (confidence 2) [27E5A49C]
Track 8 accurately ripped (confidence 2) [EA5822EB]
All tracks accurately ripped
End of status report
Any questions -> support@pro-jazz.com. По всем вопросам пишите -> support@pro-jazz.com
09:27
190
Нет комментариев. Ваш будет первым!