Вы используете незарегистрированную версию компонента "Вкладки"!

Поиск

(Fusion) Wayne Horvitz - The President: Miracle Mile - 1992, FLAC (image+.cue), lossless

(Fusion) Wayne Horvitz - The President: Miracle Mile - 1992, FLAC (image+.cue), lossless
Треклист:
Wayne Horvitz - The President: Miracle Mile
Жанр: Free Jazz, Fusion, Contemporary Jazz
Год выпуска диска: 1992
Производитель диска: USA
Label: Nonesuch
Аудио кодек: FLAC
Тип рипа: image+.cue
Битрейт аудио: lossless
Продолжительность: 47 минут 38 секунд
Трэклист:
01. The Front (5:18)
02. Variations on a Theme by W.C. Handy (6:32)
03. I'm Downstairs (5:21)
04. Shuffle (5:58)
05. and sing this song (4:14)
06. Yuba City (7:36)
07. An Open Letter to George Bush (6:51)
08. Miracle Mile (5:52)
Доп. информация:
 
EAC-log
Exact Audio Copy V0.99 prebeta 4 from 23. January 2008
EAC extraction logfile from 28. March 2009, 20:10
Wayne Horvitz/The President / Miracle Mile
Used drive : ASUS DRW-2014L1T Adapter: 3 ID: 0
Read mode : Secure
Utilize accurate stream : Yes
Defeat audio cache : Yes
Make use of C2 pointers : No
Read offset correction : 6
Overread into Lead-In and Lead-Out : No
Fill up missing offset samples with silence : Yes
Delete leading and trailing silent blocks : No
Null samples used in CRC calculations : Yes
Used interface : Native Win32 interface for Win NT & 2000
Used output format : User Defined Encoder
Selected bitrate : 768 kBit/s
Quality : High
Add ID3 tag : No
Command line compressor : C:\Program Files\FLAC\flac.exe
Additional command line options : -8 -V -T "ARTIST=%a" -T "TITLE=%t" -T "ALBUM=%g" -T "DATE=%y" -T "TRACKNUMBER=%n" -T "GENRE=%m" -T "COMMENT=EAC FLAC -8" %s
TOC of the extracted CD
Track | Start | Length | Start sector | End sector
---------------------------------------------------------
1 | 0:00.33 | 5:17.47 | 33 | 23854
2 | 5:18.05 | 6:31.38 | 23855 | 53217
3 | 11:49.43 | 5:20.57 | 53218 | 77274
4 | 17:10.25 | 5:58.15 | 77275 | 104139
5 | 23:08.40 | 4:14.08 | 104140 | 123197
6 | 27:22.48 | 7:35.40 | 123198 | 157362
7 | 34:58.13 | 6:51.20 | 157363 | 188207
8 | 41:49.33 | 5:52.20 | 188208 | 214627
Range status and errors
Selected range
Filename D:\Torrent Downloads\Music\Wayne Horvitz - Miracle Mile\Wayne Horvitz The President - Miracle Mile.wav
Peak level 97.3 %
Range quality 99.9 %
Test CRC 9A346F0D
Copy CRC 9A346F0D
Copy OK
No errors occurred
AccurateRip summary
Track 1 accurately ripped (confidence 1) [9671ABA7]
Track 2 accurately ripped (confidence 1) [9A0D5673]
Track 3 accurately ripped (confidence 1) [7C4A3178]
Track 4 accurately ripped (confidence 1) [CC385910]
Track 5 accurately ripped (confidence 1) [E234497A]
Track 6 accurately ripped (confidence 1) [D4471510]
Track 7 accurately ripped (confidence 1) [4044605D]
Track 8 accurately ripped (confidence 1) [B08713AC]
All tracks accurately ripped
End of status report
Any questions -> support@pro-jazz.com. По всем вопросам пишите -> support@pro-jazz.com
09:29
200
Нет комментариев. Ваш будет первым!