Поиск

(Avant-Garde Jazz) The Group (Ahmed Abdullah, Marion Brown, Billy Bang, Sirone, Fred Hopkins, Andrew Cyrille) - Live - 2012, rec. 1986, FLAC (tracks+.cue), lossless

(Avant-Garde Jazz) The Group (Ahmed Abdullah, Marion Brown, Billy Bang, Sirone, Fred Hopkins, Andrew Cyrille) - Live - 2012, rec. 1986, FLAC (tracks+.cue), lossless
Треклист:
The Group - Live
Жанр: Avant-Garde Jazz
Страна-производитель диска: Lithuania
Год издания: 2012
Год записи: 1986
Издатель (лейбл): NoBusiness Records
Номер по каталогу: NBCD 50
Аудиокодек: FLAC (*.flac)
Тип рипа: tracks+.cue
Битрейт аудио: lossless
Продолжительность: 01:16:32
Источник (релизер): nnm, Джаз Клуб, 20 февраля, 2013 / спасибо mishka1981
Наличие сканов в содержимом раздачи: да
Треклист:
1. Joann's Green Satin Dress (Butch Morris, arr. Billy Bang) 8'39"
2. Goodbye Pork Pie Hat (Charlie Mingus, arr. Marion Brown) 18'20"
3. La Placita (Marion Brown) 18'26"
4. Shift Below (Billy Bang) 6'00"
5. Amanpondo (Miriam Makeba, arr. Ahmed Abdullah) 25'16"
Доп. информация:
Musicians:
AHMED ABDULLAH - trumpet and flugelhorn
MARION BROWN - alto saxophone
BILLY BANG - violin
SIRONE - bass
FRED HOPKINS - bass
ANDREW CYRILLE - drums
Recorded 13th September, 1986 at the Jazz Center of New York, 380 Lafayette Street, NYC
THE GROUP - Live nobusinessrecords.com
 
... back ...
 
... photo ...
 
Лог создания рипа
Exact Audio Copy V1.0 beta 1 from 15. November 2010
EAC extraction logfile from 19. February 2013, 22:54
The Group / Live
Used drive : TSSTcorpCDDVDW TS-L633A Adapter: 3 ID: 0
Read mode : Secure
Utilize accurate stream : Yes
Defeat audio cache : Yes
Make use of C2 pointers : No
Read offset correction : 6
Overread into Lead-In and Lead-Out : No
Fill up missing offset samples with silence : Yes
Delete leading and trailing silent blocks : No
Null samples used in CRC calculations : Yes
Used interface : Installed external ASPI interface
Gap handling : Appended to previous track
Used output format : User Defined Encoder
Selected bitrate : 896 kBit/s
Quality : High
Add ID3 tag : No
Command line compressor : C:\Program Files\Exact Audio Copy\FLAC\FLAC.EXE
Additional command line options : -8 -V -T "ARTIST=%a" -T "TITLE=%t" -T "ALBUM=%g" -T "DATE=%y" -T "TRACKNUMBER=%n" -T "TOTALTRACKS=%x" -T "GENRE=%m" -T "ALBUMARTIST=%v" -T "ALBUM ARTIST=%v" -T "COMMENT=EAC Secure Mode, Test & Copy, AccurateRip, FLAC -8" %s
TOC of the extracted CD
Track | Start | Length | Start sector | End sector
---------------------------------------------------------
1 | 0:00.00 | 8:41.01 | 0 | 39075
2 | 8:41.01 | 18:20.54 | 39076 | 121629
3 | 27:01.55 | 18:26.70 | 121630 | 204649
4 | 45:28.50 | 5:59.42 | 204650 | 231616
5 | 51:28.17 | 25:16.29 | 231617 | 345345
Track 1
Filename C:\MY RIPS\01 - Joann's Green Satin Dress.wav
Pre-gap length 0:00:02.00
Peak level 96.6 %
Extraction speed 1.2 X
Track quality 99.9 %
Test CRC E8CB2FC7
Copy CRC E8CB2FC7
Track not present in AccurateRip database
Copy OK
Track 2
Filename C:\MY RIPS\02 - Goodbye Pork Pie Hat.wav
Pre-gap length 0:00:03.00
Peak level 96.6 %
Extraction speed 1.8 X
Track quality 100.0 %
Test CRC 459BAC08
Copy CRC 459BAC08
Track not present in AccurateRip database
Copy OK
Track 3
Filename C:\MY RIPS\03 - La Placita.wav
Pre-gap length 0:00:03.00
Peak level 96.6 %
Extraction speed 2.2 X
Track quality 100.0 %
Test CRC 78878216
Copy CRC 78878216
Track not present in AccurateRip database
Copy OK
Track 4
Filename C:\MY RIPS\04 - Shift Below.wav
Pre-gap length 0:00:03.00
Peak level 96.6 %
Extraction speed 2.2 X
Track quality 100.0 %
Test CRC 5B2F2399
Copy CRC 5B2F2399
Track not present in AccurateRip database
Copy OK
Track 5
Filename C:\MY RIPS\05 - Amanpondo.wav
Pre-gap length 0:00:03.00
Peak level 96.6 %
Extraction speed 2.6 X
Track quality 100.0 %
Test CRC 1B2A2B3A
Copy CRC 1B2A2B3A
Track not present in AccurateRip database
Copy OK
None of the tracks are present in the AccurateRip database
No errors occurred
End of status report
==== Log checksum 2AA1F8D1CC5CA7CB32268B9D153668A3E6FEF6B91F0A1C1EC89DE8573F6AB00D ====
 
Содержание индексной карты (.CUE)
REM GENRE Jazz
REM DATE 1986
REM DISCID 3011FC05
REM COMMENT "ExactAudioCopy v1.0b1"
PERFORMER "The Group"
TITLE "Live"
FILE "01 - Joann's Green Satin Dress.wav" WAVE
TRACK 01 AUDIO
TITLE "Joann's Green Satin Dress"
PERFORMER "The Group"
INDEX 01 00:00:00
TRACK 02 AUDIO
TITLE "Goodbye Pork Pie Hat"
PERFORMER "The Group"
INDEX 00 08:38:01
FILE "02 - Goodbye Pork Pie Hat.wav" WAVE
INDEX 01 00:00:00
TRACK 03 AUDIO
TITLE "La Placita"
PERFORMER "The Group"
INDEX 00 18:17:54
FILE "03 - La Placita.wav" WAVE
INDEX 01 00:00:00
TRACK 04 AUDIO
TITLE "Shift Below"
PERFORMER "The Group"
INDEX 00 18:23:70
FILE "04 - Shift Below.wav" WAVE
INDEX 01 00:00:00
TRACK 05 AUDIO
TITLE "Amanpondo"
PERFORMER "The Group"
INDEX 00 05:56:42
FILE "05 - Amanpondo.wav" WAVE
INDEX 01 00:00:00
 
auCDtect Task Manager
-----------------------
DON'T MODIFY THIS FILE
-----------------------
PERFORMER: auCDtect Task Manager, ver. 1.5.1RC6 build 1.5.1.7
Copyright (c) 2008-2010 y-soft. All rights reserved
http://y-soft.org
ANALYZER: auCDtect: CD records authenticity detector, version 0.8.2
Copyright (c) 2004 Oleg Berngardt. All rights reserved.
Copyright (c) 2004 Alexander Djourik. All rights reserved.
FILE: 05 - Amanpondo.flac
Size: 168448269 Hash: 9CA6E9DD7AAEDDAD90CF8AEEEBCC9C5A Accuracy: -m0
Conclusion: CDDA 100%
Signature: 71F6B4B3B0DC139FDBF889FA297ECB38B61D0CB9
FILE: 04 - Shift Below.flac
Size: 37678595 Hash: 82791FF856063C3C596038C89B582B43 Accuracy: -m0
Conclusion: CDDA 100%
Signature: 7A152CFD309C71F0012410F9AF74A3D370ACE5A9
FILE: 03 - La Placita.flac
Size: 128129836 Hash: 74905ED3F56313E5832532E02AD289B6 Accuracy: -m0
Conclusion: CDDA 100%
Signature: 16D03A31AD462BDDA5F03A8114BD5EED832F98D4
FILE: 02 - Goodbye Pork Pie Hat.flac
Size: 122451781 Hash: CA0D07050790C824D2BB2484DA57E1AA Accuracy: -m0
Conclusion: CDDA 100%
Signature: 0C86E6F23E31C8205B2A0422E45DC913DEF3E0A4
FILE: 01 - Joann's Green Satin Dress.flac
Size: 61638190 Hash: CEBC61ADA68CCCC4B43E385A29F10027 Accuracy: -m0
Conclusion: CDDA 100%
Signature: 82AAE0E904A7454AA12B292F840B2D35A18A095A
Приватный:
Нет (DHT включён)
Размер:
503.79 Мб (528,264,907 байт) » файлов: 24
Участники:
0 раздают, 0 качают (0 участников всего)
Внешние участники:
3 раздают, 1 качают (4 участников всего) [ Обновить ]
Скорость:
126.67 Кб/c 0/c
For power users only: no seeders - write personal message to M0p94ok. Для power user: нет сидеров - пишите в личку M0p94ok.
11:10
172
Нет комментариев. Ваш будет первым!