Вы используете незарегистрированную версию компонента "Вкладки"!

Поиск

(Free Jazz) Dennis Gonzalez NY Quartet - NY Midnight Suite - 2004, FLAC (tracks+.cue), lossless

(Free Jazz) Dennis Gonzalez NY Quartet - NY Midnight Suite - 2004, FLAC (tracks+.cue), lossless
Треклист:
Dennis González NY Quartet / NY Midnight Suite
Жанр: Free Jazz
Страна-производитель диска: Portugal
Год издания: 2004
Издатель (лейбл): Clean Feed
Номер по каталогу: CF020CD
Аудиокодек: FLAC (*.flac)
Тип рипа: tracks+.cue
Битрейт аудио: lossless
Продолжительность: 1:11:43
Источник (релизер): Max Monteiro
Наличие сканов в содержимом раздачи: нет
Треклист:
NY Midnight Suite
1. [III] Sketch the Wings of Midnight 11:52
2. [II] Angels of the Dark Streets 14:50
3. [I] Runaway Taxi Uptown 12:56
4. Hymn for the Elders 18:09
5. Dominant Fang 11:10
6. New Short Song 2:45
All compositions by Dennis González.
 
Лог создания рипа
Exact Audio Copy V1.0 beta 3 from 29. August 2011
EAC extraction logfile from 16. April 2013, 9:15
Dennis González NY Quartet / NY Midnight Suite
Used drive : SlimtypeeNAU508 5 Adapter: 1 ID: 0
Read mode : Secure
Utilize accurate stream : Yes
Defeat audio cache : Yes
Make use of C2 pointers : No
Read offset correction : 6
Overread into Lead-In and Lead-Out : No
Fill up missing offset samples with silence : Yes
Delete leading and trailing silent blocks : No
Null samples used in CRC calculations : Yes
Used interface : Native Win32 interface for Win NT & 2000
Gap handling : Appended to previous track
Used output format : User Defined Encoder
Selected bitrate : 768 kBit/s
Quality : High
Add ID3 tag : No
Command line compressor : C:\Program Files (x86)\Exact Audio Copy\Flac\flac.exe
Additional command line options : -8 -V -T "ARTIST=%artist%" -T "TITLE=%title%" -T "ALBUM=%albumtitle%" -T "DATE=%year%" -T "TRACKNUMBER=%tracknr%" -T "GENRE=%genre%" -T "PERFORMER=%albuminterpret%" -T "COMPOSER=%composer%" %haslyrics%--tag-from-file=LYRICS="%lyricsfile%"%haslyrics% -T "ALBUMARTIST=%albumartist%" -T "DISCNUMBER=%cdnumber%" -T "TOTALDISCS=%totalcds%" -T "TOTALTRACKS=%numtracks%" -T "COMMENT=%comment%" %source% -o %dest%
TOC of the extracted CD
Track | Start | Length | Start sector | End sector
---------------------------------------------------------
1 | 0:00.00 | 11:51.61 | 0 | 53385
2 | 11:51.61 | 14:50.15 | 53386 | 120150
3 | 26:42.01 | 12:56.03 | 120151 | 178353
4 | 39:38.04 | 18:09.20 | 178354 | 260048
5 | 57:47.24 | 11:09.67 | 260049 | 310290
6 | 68:57.16 | 2:45.27 | 310291 | 322692
Track 1
Filename C:\EAC rips\01 - NY Midnight Suite - [III] Sketch the Wings of Midnight.wav
Pre-gap length 0:00:02.00
Peak level 100.0 %
Extraction speed 2.5 X
Track quality 99.9 %
Test CRC 49AD5E9A
Copy CRC 49AD5E9A
Accurately ripped (confidence 2) [1D4C8407] (AR v1)
Copy OK
Track 2
Filename C:\EAC rips\02 - NY Midnight Suite - [II] Angels of the Dark Streets.wav
Pre-gap length 0:00:00.37
Peak level 100.0 %
Extraction speed 3.4 X
Track quality 100.0 %
Test CRC B5B2226F
Copy CRC B5B2226F
Accurately ripped (confidence 2) [5BFBA101] (AR v1)
Copy OK
Track 3
Filename C:\EAC rips\03 - NY Midnight Suite - [I] Runaway Taxi Uptown.wav
Pre-gap length 0:00:00.37
Peak level 100.0 %
Extraction speed 3.9 X
Track quality 100.0 %
Test CRC BEAD7DC8
Copy CRC BEAD7DC8
Accurately ripped (confidence 2) [23E58C6D] (AR v1)
Copy OK
Track 4
Filename C:\EAC rips\04 - Hymn for the Elders.wav
Pre-gap length 0:00:00.37
Peak level 100.0 %
Extraction speed 4.3 X
Track quality 99.9 %
Test CRC 38A1B43B
Copy CRC 38A1B43B
Accurately ripped (confidence 2) [EE9D4460] (AR v1)
Copy OK
Track 5
Filename C:\EAC rips\05 - Dominant Fang.wav
Pre-gap length 0:00:00.37
Peak level 100.0 %
Extraction speed 4.8 X
Track quality 100.0 %
Test CRC 392AB1B2
Copy CRC 392AB1B2
Accurately ripped (confidence 2) [C912F2B9] (AR v1)
Copy OK
Track 6
Filename C:\EAC rips\06 - New Short Song.wav
Pre-gap length 0:00:00.37
Peak level 100.0 %
Extraction speed 3.3 X
Track quality 99.9 %
Test CRC 6AFCB785
Copy CRC 6AFCB785
Accurately ripped (confidence 2) [EE5968FC] (AR v1)
Copy OK
All tracks accurately ripped
No errors occurred
End of status report
---- CUETools DB Plugin V2.1.4
[CTDB TOCID: XjgOhWYJAHqUdUFUQKMgr7uUcas-] disk not present in database
Submit result: XjgOhWYJAHqUdUFUQKMgr7uUcas- has been uploaded
==== Log checksum CAD926AC55EDDB58547599C21DD7A1ACCCA5B0A8566E2991102AEF076B9919D3 ====
 
Содержание индексной карты (.CUE)
REM GENRE Jazz
REM DATE 2004
REM DISCID 4C10CE06
REM COMMENT "ExactAudioCopy v1.0b3"
PERFORMER "Dennis González NY Quartet"
TITLE "NY Midnight Suite"
FILE "01 - NY Midnight Suite - [III] Sketch the Wings of Midnight.wav" WAVE
TRACK 01 AUDIO
TITLE "NY Midnight Suite - [III] Sketch the Wings of Midnight"
PERFORMER "Dennis González NY Quartet"
INDEX 01 00:00:00
TRACK 02 AUDIO
TITLE "NY Midnight Suite - [II] Angels of the Dark Streets"
PERFORMER "Dennis González NY Quartet"
INDEX 00 11:51:24
FILE "02 - NY Midnight Suite - [II] Angels of the Dark Streets.wav" WAVE
INDEX 01 00:00:00
TRACK 03 AUDIO
TITLE "NY Midnight Suite - [I] Runaway Taxi Uptown"
PERFORMER "Dennis González NY Quartet"
INDEX 00 14:49:53
FILE "03 - NY Midnight Suite - [I] Runaway Taxi Uptown.wav" WAVE
INDEX 01 00:00:00
TRACK 04 AUDIO
TITLE "Hymn for the Elders"
PERFORMER "Dennis González NY Quartet"
INDEX 00 12:55:41
FILE "04 - Hymn for the Elders.wav" WAVE
INDEX 01 00:00:00
TRACK 05 AUDIO
TITLE "Dominant Fang"
PERFORMER "Dennis González NY Quartet"
INDEX 00 18:08:58
FILE "05 - Dominant Fang.wav" WAVE
INDEX 01 00:00:00
TRACK 06 AUDIO
TITLE "New Short Song"
PERFORMER "Dennis González NY Quartet"
INDEX 00 11:09:30
FILE "06 - New Short Song.wav" WAVE
INDEX 01 00:00:00
Доп. информация: Recorded November 22, 2003 at The Studio, New York.
To Malachi Favors Maghostut (1927-2004).
 
Состав
Dennis González – Trumpet
Ellery Eskelin – Tenor Sax
Mark Helias – Double Bass
Mike Thompson – Drums
Any questions -> support@pro-jazz.com. По всем вопросам пишите -> support@pro-jazz.com
11:09
195
Нет комментариев. Ваш будет первым!