Поиск

(Free Improvisation) Evan Parker / Barry Guy / Paul Lytton + Peter Evans - Scenes in the House of Music - 2010, FLAC (tracks+.cue), lossless

(Free Improvisation) Evan Parker / Barry Guy / Paul Lytton + Peter Evans - Scenes in the House of Music - 2010, FLAC (tracks+.cue), lossless
Треклист:
Parker / Guy / Lytton + Peter Evans / Scenes in the House of Music
Жанр: Free Improvisation
Страна-производитель диска: Portugal
Год издания: 2010
Издатель (лейбл): Clean Feed
Номер по каталогу: CF196CD
Аудиокодек: FLAC (*.flac)
Тип рипа: tracks+.cue
Битрейт аудио: lossless
Продолжительность: 1:06:21
Источник (релизер): Max Monteiro
Наличие сканов в содержимом раздачи: да
Треклист:
1. Presentation (1:14)
2. Scene 1 (12:11)
3. Scene 2 (13:13)
4. Scene 3 (12:21)
5. Scene 4 (13:48)
6. Scene 5 (13:34)
All compositions by Evan Parker, Peter Evans, Barry Guy and Paul Lytton.
Recorded September 12th, 2009 at Casa da Música.
Evan Parker – Tenor and Soprano Saxophones
Peter Evans – Trumpet
Barry Guy – Double Bass
Paul Lytton – Drums and Percussion
 
Лог создания рипа
Exact Audio Copy V1.0 beta 3 from 29. August 2011
EAC extraction logfile from 17. April 2013, 15:53
Parker / Guy / Lytton + Peter Evans / Scenes in the House of Music
Used drive : SlimtypeeNAU508 5 Adapter: 1 ID: 0
Read mode : Secure
Utilize accurate stream : Yes
Defeat audio cache : Yes
Make use of C2 pointers : No
Read offset correction : 6
Overread into Lead-In and Lead-Out : No
Fill up missing offset samples with silence : Yes
Delete leading and trailing silent blocks : No
Null samples used in CRC calculations : Yes
Used interface : Native Win32 interface for Win NT & 2000
Gap handling : Appended to previous track
Used output format : User Defined Encoder
Selected bitrate : 768 kBit/s
Quality : High
Add ID3 tag : No
Command line compressor : C:\Program Files (x86)\Exact Audio Copy\Flac\flac.exe
Additional command line options : -8 -V -T "ARTIST=%artist%" -T "TITLE=%title%" -T "ALBUM=%albumtitle%" -T "DATE=%year%" -T "TRACKNUMBER=%tracknr%" -T "GENRE=%genre%" -T "PERFORMER=%albuminterpret%" -T "COMPOSER=%composer%" %haslyrics%--tag-from-file=LYRICS="%lyricsfile%"%haslyrics% -T "ALBUMARTIST=%albumartist%" -T "DISCNUMBER=%cdnumber%" -T "TOTALDISCS=%totalcds%" -T "TOTALTRACKS=%numtracks%" -T "COMMENT=%comment%" %source% -o %dest%
TOC of the extracted CD
Track | Start | Length | Start sector | End sector
---------------------------------------------------------
1 | 0:00.00 | 1:13.41 | 0 | 5515
2 | 1:13.41 | 12:11.36 | 5516 | 60376
3 | 13:25.02 | 13:12.45 | 60377 | 119821
4 | 26:37.47 | 12:21.12 | 119822 | 175408
5 | 38:58.59 | 13:48.21 | 175409 | 237529
6 | 52:47.05 | 13:33.39 | 237530 | 298543
Track 1
Filename C:\EAC rips\01 - Presentation.wav
Pre-gap length 0:00:02.00
Peak level 97.7 %
Extraction speed 0.8 X
Track quality 100.0 %
Test CRC 4EE8EBF1
Copy CRC 4EE8EBF1
Accurately ripped (confidence 2) [A2010E36] (AR v1)
Copy OK
Track 2
Filename C:\EAC rips\02 - Scene 1.wav
Pre-gap length 0:00:01.19
Peak level 97.7 %
Extraction speed 1.4 X
Track quality 100.0 %
Test CRC 5E1C9FAD
Copy CRC 5E1C9FAD
Accurately ripped (confidence 2) [5E1FBAF2] (AR v1)
Copy OK
Track 3
Filename C:\EAC rips\03 - Scene 2.wav
Pre-gap length 0:00:00.55
Peak level 97.7 %
Extraction speed 1.8 X
Track quality 100.0 %
Test CRC 787B724A
Copy CRC 787B724A
Accurately ripped (confidence 2) [EEE53589] (AR v1)
Copy OK
Track 4
Filename C:\EAC rips\04 - Scene 3.wav
Pre-gap length 0:00:00.44
Peak level 97.7 %
Extraction speed 2.0 X
Track quality 100.0 %
Test CRC 7E5457DE
Copy CRC 7E5457DE
Accurately ripped (confidence 2) [FAE3DCBF] (AR v1)
Copy OK
Track 5
Filename C:\EAC rips\05 - Scene 4.wav
Peak level 97.7 %
Extraction speed 2.3 X
Track quality 100.0 %
Test CRC 997010AB
Copy CRC 997010AB
Accurately ripped (confidence 2) [73BFED71] (AR v1)
Copy OK
Track 6
Filename C:\EAC rips\06 - Scene 5.wav
Peak level 97.7 %
Extraction speed 2.5 X
Track quality 100.0 %
Test CRC 47E975D0
Copy CRC 47E975D0
Accurately ripped (confidence 2) [0C0A8F14] (AR v1)
Copy OK
All tracks accurately ripped
No errors occurred
End of status report
---- CUETools DB Plugin V2.1.4
[CTDB TOCID: mDjCsdxV5l0DrpINb28J7tukD_A-] found
Submit result: already submitted
Track | CTDB Status
1 | (1/1) Accurately ripped
2 | (1/1) Accurately ripped
3 | (1/1) Accurately ripped
4 | (1/1) Accurately ripped
5 | (1/1) Accurately ripped
6 | (1/1) Accurately ripped
==== Log checksum F25BAC4136B98D30E275371317EE875DF66ED84E665AFE8B7712C210A84A0F9E ====
 
Содержание индексной карты (.CUE)
REM GENRE Jazz
REM DATE 2010
REM DISCID 510F8C06
REM COMMENT "ExactAudioCopy v1.0b3"
PERFORMER "Parker / Guy / Lytton + Peter Evans"
TITLE "Scenes in the House of Music"
FILE "01 - Presentation.wav" WAVE
TRACK 01 AUDIO
TITLE "Presentation"
PERFORMER "Parker / Guy / Lytton + Peter Evans"
INDEX 01 00:00:00
TRACK 02 AUDIO
TITLE "Scene 1"
PERFORMER "Parker / Guy / Lytton + Peter Evans"
INDEX 00 01:12:22
FILE "02 - Scene 1.wav" WAVE
INDEX 01 00:00:00
TRACK 03 AUDIO
TITLE "Scene 2"
PERFORMER "Parker / Guy / Lytton + Peter Evans"
INDEX 00 12:10:56
FILE "03 - Scene 2.wav" WAVE
INDEX 01 00:00:00
TRACK 04 AUDIO
TITLE "Scene 3"
PERFORMER "Parker / Guy / Lytton + Peter Evans"
INDEX 00 13:12:01
FILE "04 - Scene 3.wav" WAVE
INDEX 01 00:00:00
FILE "05 - Scene 4.wav" WAVE
TRACK 05 AUDIO
TITLE "Scene 4"
PERFORMER "Parker / Guy / Lytton + Peter Evans"
INDEX 01 00:00:00
FILE "06 - Scene 5.wav" WAVE
TRACK 06 AUDIO
TITLE "Scene 5"
PERFORMER "Parker / Guy / Lytton + Peter Evans"
INDEX 01 00:00:00
Download available for power users only.
To become a power user - read FAQ.
10:11
280
Нет комментариев. Ваш будет первым!