Вы используете незарегистрированную версию компонента "Вкладки"!

Поиск

(Avant-Garde Jazz, Spoken Word, pfMENTUM) [CD] Dottie Grossman & Michael Vlatkovich - Call And Response - 2004, FLAC (tracks+.cue), lossless

(Avant-Garde Jazz, Spoken Word, pfMENTUM) [CD] Dottie Grossman & Michael Vlatkovich - Call And Response - 2004, FLAC (tracks+.cue), lossless
Треклист:
Dottie Grossman & Michael Vlatkovich / Call And Response
Жанр: Avant-Garde Jazz, Spoken Word, pfMENTUM
Носитель: CD
Страна-производитель диска: US
Год издания: 2004
Издатель (лейбл): pfMENTUM
Номер по каталогу: CD021
Страна: US
Аудиокодек: FLAC (*.flac)
Тип рипа: tracks+.cue
Битрейт аудио: lossless
Продолжительность: 54:17
Источник (релизер): свой фирменный диск
Наличие сканов в содержимом раздачи:
Треклист:
1 If We Lived on a Mountaintop 0:44
2 The Lady From Calcutta 1:05
3 What if Another Caveman 1:12
4 This Poem Is Part Cartoon 0:44
5 I'm Grown up Now 0:55
6 The Hum of a Place 0:58
7 In a Sleep / In the Dream / In Recurring Cary Grant 1:34
8 Today I Bought 1:04
9 In the Canyons Below 1:27
10 In the Evening 1:33
11 There Has Been 0:44
12 Three Henny Youngman Poems 1:12
13 Dear Terre Haute 1:05
14 We Waited the Storm Out 1:23
15 On a Navy-Blue Night 1:29
16 Two About Movie Stars 1:34
17 The Man Who Is More Like the Murderer on His Way 1:40
18 Ten P.M. 2:12
19 Six Short Cat Poems 2:04
20 The Man Who Loves His Job Makes a Poem 1:09
21 You Make Me Laugh Easily 1:27
22 Three Henny Youngman Poems 0:58
23 Two Appropriations 2:26
24 My Hairdresser Tells Me 1:52
25 Daughter 2:52
26 In My Pre-Adolescent 0:46
27 Once Upon a Time 1:32
28 Two Short Ones 2:00
29 Three Short Ones 2:09
30 The Weekend Begins 1:35
31 Two in a Row 2:46
32 Two About Geography 2:02
33 Two More in a Row 2:40
34 Two That Seem to Go Together 1:19
35 ...And Three More Henny Youngman Poems 2:08
 
Лог создания рипа
Exact Audio Copy V1.0 beta 3 from 29. August 2011
EAC extraction logfile from 9. January 2014, 23:51
Dottie Grossman & Michael Vlatkovich / Call And Response
Used drive : PIONEER DVD-RW DVR-115D Adapter: 0 ID: 0
Read mode : Secure
Utilize accurate stream : Yes
Defeat audio cache : Yes
Make use of C2 pointers : No
Read offset correction : 48
Overread into Lead-In and Lead-Out : No
Fill up missing offset samples with silence : Yes
Delete leading and trailing silent blocks : No
Null samples used in CRC calculations : Yes
Used interface : Installed external ASPI interface
Gap handling : Appended to previous track
Used output format : User Defined Encoder
Selected bitrate : 896 kBit/s
Quality : High
Add ID3 tag : No
Command line compressor : C:\Program Files\Exact Audio Copy\FLAC\FLAC.EXE
Additional command line options : -6 -V -T "ARTIST=%artist%" -T "TITLE=%title%" -T "ALBUM=%albumtitle%" -T "DATE=%year%" -T "TRACKNUMBER=%tracknr%" -T "GENRE=%genre%" -T "COMMENT=%comment%" -T "BAND=%albuminterpret%" -T "COMPOSER=%composer%" %haslyrics%--tag-from-file=LYRICS="%lyricsfile%"%haslyrics% -T "DISCNUMBER=%cdnumber%" -T "TOTALDISCS=%totalcds%" -T "TOTALTRACKS=%numtracks%" %hascover%--picture="%coverfile%"%hascover% %source% -o %dest%
TOC of the extracted CD
Track | Start | Length | Start sector | End sector
---------------------------------------------------------
1 | 0:00.00 | 0:44.14 | 0 | 3313
2 | 0:44.14 | 1:05.48 | 3314 | 8236
3 | 1:49.62 | 1:12.22 | 8237 | 13658
4 | 3:02.09 | 0:44.43 | 13659 | 17001
5 | 3:46.52 | 0:55.02 | 17002 | 21128
6 | 4:41.54 | 0:58.60 | 21129 | 25538
7 | 5:40.39 | 1:34.35 | 25539 | 32623
8 | 7:14.74 | 1:04.06 | 32624 | 37429
9 | 8:19.05 | 1:27.38 | 37430 | 43992
10 | 9:46.43 | 1:33.64 | 43993 | 51031
11 | 11:20.32 | 0:44.53 | 51032 | 54384
12 | 12:05.10 | 1:12.07 | 54385 | 59791
13 | 13:17.17 | 1:05.48 | 59792 | 64714
14 | 14:22.65 | 1:23.31 | 64715 | 70970
15 | 15:46.21 | 1:29.51 | 70971 | 77696
16 | 17:15.72 | 1:34.07 | 77697 | 84753
17 | 18:50.04 | 1:40.53 | 84754 | 92306
18 | 20:30.57 | 2:12.32 | 92307 | 102238
19 | 22:43.14 | 2:04.36 | 102239 | 111574
20 | 24:47.50 | 1:09.41 | 111575 | 116790
21 | 25:57.16 | 1:27.50 | 116791 | 123365
22 | 27:24.66 | 0:58.47 | 123366 | 127762
23 | 28:23.38 | 2:26.72 | 127763 | 138784
24 | 30:50.35 | 1:52.55 | 138785 | 147239
25 | 32:43.15 | 2:32.50 | 147240 | 158689
26 | 35:15.65 | 0:46.68 | 158690 | 162207
27 | 36:02.58 | 1:32.01 | 162208 | 169108
28 | 37:34.59 | 2:00.47 | 169109 | 178155
29 | 39:35.31 | 2:09.18 | 178156 | 187848
30 | 41:44.49 | 1:35.16 | 187849 | 194989
31 | 43:19.65 | 2:46.01 | 194990 | 207440
32 | 46:05.66 | 2:02.68 | 207441 | 216658
33 | 48:08.59 | 2:40.52 | 216659 | 228710
34 | 50:49.36 | 1:19.27 | 228711 | 234662
35 | 52:08.63 | 2:08.41 | 234663 | 244303
Track 1
Filename D:\zzz\01 - If We Lived On A Mountaintop.wav
Pre-gap length 0:00:02.00
Peak level 53.2 %
Extraction speed 2.5 X
Track quality 100.0 %
Test CRC 9E957665
Copy CRC 9E957665
Track not present in AccurateRip database
Copy OK
Track 2
Filename D:\zzz\02 - The Lady From Calcutta.wav
Peak level 65.8 %
Extraction speed 3.1 X
Track quality 100.0 %
Test CRC 2B11E243
Copy CRC 2B11E243
Track not present in AccurateRip database
Copy OK
Track 3
Filename D:\zzz\03 - What If Another Caveman.wav
Peak level 74.5 %
Extraction speed 3.4 X
Track quality 100.0 %
Test CRC BF442D46
Copy CRC BF442D46
Track not present in AccurateRip database
Copy OK
Track 4
Filename D:\zzz\04 - This Poem Is Part Cartoon.wav
Peak level 49.1 %
Extraction speed 2.8 X
Track quality 100.0 %
Test CRC F31392C9
Copy CRC F31392C9
Track not present in AccurateRip database
Copy OK
Track 5
Filename D:\zzz\05 - I'm Grown Up Now.wav
Peak level 92.8 %
Extraction speed 3.1 X
Track quality 100.0 %
Test CRC D21C2D92
Copy CRC D21C2D92
Track not present in AccurateRip database
Copy OK
Track 6
Filename D:\zzz\06 - The Hum Of A Place.wav
Peak level 100.0 %
Extraction speed 3.3 X
Track quality 100.0 %
Test CRC 927DDCEF
Copy CRC 927DDCEF
Track not present in AccurateRip database
Copy OK
Track 7
Filename D:\zzz\07 - In A Sleep , In The Dream , In Recurring Cary Grant.wav
Peak level 23.7 %
Extraction speed 4.0 X
Track quality 100.0 %
Test CRC 1B95F614
Copy CRC 1B95F614
Track not present in AccurateRip database
Copy OK
Track 8
Filename D:\zzz\08 - Today I Bought.wav
Peak level 58.7 %
Extraction speed 2.7 X
Track quality 99.8 %
Test CRC C0A7DF8C
Copy CRC C0A7DF8C
Track not present in AccurateRip database
Copy OK
Track 9
Filename D:\zzz\09 - In The Canyons Below.wav
Peak level 58.3 %
Extraction speed 4.1 X
Track quality 100.0 %
Test CRC EC7E82F3
Copy CRC EC7E82F3
Track not present in AccurateRip database
Copy OK
Track 10
Filename D:\zzz\10 - In The Evening.wav
Peak level 78.7 %
Extraction speed 4.3 X
Track quality 100.0 %
Test CRC C8020A22
Copy CRC C8020A22
Track not present in AccurateRip database
Copy OK
Track 11
Filename D:\zzz\11 - There Has Been.wav
Peak level 59.2 %
Extraction speed 3.4 X
Track quality 100.0 %
Test CRC D8E09CAF
Copy CRC D8E09CAF
Track not present in AccurateRip database
Copy OK
Track 12
Filename D:\zzz\12 - Three Henny Youngman Poems.wav
Peak level 39.8 %
Extraction speed 4.2 X
Track quality 100.0 %
Test CRC 1F353025
Copy CRC 1F353025
Track not present in AccurateRip database
Copy OK
Track 13
Filename D:\zzz\13 - Dear Terre Haute.wav
Peak level 100.0 %
Extraction speed 4.1 X
Track quality 100.0 %
Test CRC DE9A75B4
Copy CRC DE9A75B4
Track not present in AccurateRip database
Copy OK
Track 14
Filename D:\zzz\14 - We Waited The Storm Out.wav
Peak level 100.0 %
Extraction speed 4.5 X
Track quality 100.0 %
Test CRC AE0386DA
Copy CRC AE0386DA
Track not present in AccurateRip database
Copy OK
Track 15
Filename D:\zzz\15 - On A Navy-Blue Night.wav
Peak level 100.0 %
Extraction speed 4.7 X
Track quality 100.0 %
Test CRC 2E2DC611
Copy CRC 2E2DC611
Track not present in AccurateRip database
Copy OK
Track 16
Filename D:\zzz\16 - Two About Movie Stars.wav
Peak level 57.4 %
Extraction speed 4.8 X
Track quality 100.0 %
Test CRC 44860863
Copy CRC 44860863
Track not present in AccurateRip database
Copy OK
Track 17
Filename D:\zzz\17 - The Man Who Is More Like The Murderer On His Way.wav
Peak level 100.0 %
Extraction speed 5.0 X
Track quality 100.0 %
Test CRC 820B7D40
Copy CRC 820B7D40
Track not present in AccurateRip database
Copy OK
Track 18
Filename D:\zzz\18 - Ten P.M..wav
Peak level 100.0 %
Extraction speed 5.6 X
Track quality 100.0 %
Test CRC DE47B47A
Copy CRC DE47B47A
Track not present in AccurateRip database
Copy OK
Track 19
Filename D:\zzz\19 - Six Short Cat Poems.wav
Peak level 41.3 %
Extraction speed 4.6 X
Track quality 99.9 %
Test CRC 6F2AF494
Copy CRC 6F2AF494
Track not present in AccurateRip database
Copy OK
Track 20
Filename D:\zzz\20 - The Man Who Loves His Job Makes A Poem.wav
Peak level 48.9 %
Extraction speed 4.8 X
Track quality 100.0 %
Test CRC 36CA009F
Copy CRC 36CA009F
Track not present in AccurateRip database
Copy OK
Track 21
Filename D:\zzz\21 - You Make Me Laugh Easily.wav
Peak level 76.6 %
Extraction speed 5.2 X
Track quality 100.0 %
Test CRC 65E1255E
Copy CRC 65E1255E
Track not present in AccurateRip database
Copy OK
Track 22
Filename D:\zzz\22 - Three Henny Youngman Poems.wav
Peak level 16.2 %
Extraction speed 4.7 X
Track quality 100.0 %
Test CRC C965C448
Copy CRC C965C448
Track not present in AccurateRip database
Copy OK
Track 23
Filename D:\zzz\23 - Two Appropriations.wav
Peak level 53.7 %
Extraction speed 6.2 X
Track quality 100.0 %
Test CRC 53149E99
Copy CRC 53149E99
Track not present in AccurateRip database
Copy OK
Track 24
Filename D:\zzz\24 - My Hairdresser Tells Me.wav
Peak level 85.4 %
Extraction speed 6.0 X
Track quality 100.0 %
Test CRC 9DDE8480
Copy CRC 9DDE8480
Track not present in AccurateRip database
Copy OK
Track 25
Filename D:\zzz\25 - Daughter.wav
Peak level 82.0 %
Extraction speed 6.5 X
Track quality 100.0 %
Test CRC D6A551F6
Copy CRC D6A551F6
Track not present in AccurateRip database
Copy OK
Track 26
Filename D:\zzz\26 - In My Pre-Adolescent.wav
Peak level 93.5 %
Extraction speed 4.5 X
Track quality 100.0 %
Test CRC 25B8C750
Copy CRC 25B8C750
Track not present in AccurateRip database
Copy OK
Track 27
Filename D:\zzz\27 - Once Upon A Time.wav
Peak level 100.0 %
Extraction speed 5.9 X
Track quality 100.0 %
Test CRC AD5403D0
Copy CRC AD5403D0
Track not present in AccurateRip database
Copy OK
Track 28
Filename D:\zzz\28 - Two Short Ones.wav
Peak level 100.0 %
Extraction speed 6.3 X
Track quality 100.0 %
Test CRC 50918FBB
Copy CRC 50918FBB
Track not present in AccurateRip database
Copy OK
Track 29
Filename D:\zzz\29 - Three Short Ones.wav
Peak level 100.0 %
Extraction speed 6.5 X
Track quality 100.0 %
Test CRC 9CDB52A8
Copy CRC 9CDB52A8
Track not present in AccurateRip database
Copy OK
Track 30
Filename D:\zzz\30 - The Weekend Begins.wav
Peak level 87.0 %
Extraction speed 6.1 X
Track quality 100.0 %
Test CRC 67D072F1
Copy CRC 67D072F1
Track not present in AccurateRip database
Copy OK
Track 31
Filename D:\zzz\31 - Two In A Row.wav
Peak level 100.0 %
Extraction speed 6.1 X
Track quality 99.9 %
Test CRC EFAB8BA9
Copy CRC EFAB8BA9
Track not present in AccurateRip database
Copy OK
Track 32
Filename D:\zzz\32 - Two About Geography.wav
Peak level 28.7 %
Extraction speed 6.7 X
Track quality 100.0 %
Test CRC D0EE8992
Copy CRC D0EE8992
Track not present in AccurateRip database
Copy OK
Track 33
Filename D:\zzz\33 - Two More In A Row.wav
Peak level 100.0 %
Extraction speed 6.2 X
Track quality 99.9 %
Test CRC AA978854
Copy CRC AA978854
Track not present in AccurateRip database
Copy OK
Track 34
Filename D:\zzz\34 - Two That Seem To Go Together.wav
Peak level 42.7 %
Extraction speed 4.8 X
Track quality 99.8 %
Test CRC 8EA63ED5
Copy CRC 8EA63ED5
Track not present in AccurateRip database
Copy OK
Track 35
Filename D:\zzz\35 - ...And Three More Henny Youngman Poems.wav
Peak level 100.0 %
Extraction speed 7.1 X
Track quality 100.0 %
Test CRC EEC94A9D
Copy CRC EEC94A9D
Track not present in AccurateRip database
Copy OK
None of the tracks are present in the AccurateRip database
No errors occurred
End of status report
==== Log checksum 554D2306DFF5DE59C4DAD65232424E7CA1957EA979FAACB245F420BA90DC9777 ====
 
Содержание индексной карты (.CUE)
REM GENRE "Spoken Word"
REM DATE 2004
REM DISCID E60CB923
REM COMMENT "ExactAudioCopy v1.0b3"
PERFORMER "Dottie Grossman & Michael Vlatkovich"
TITLE "Call And Response"
FILE "01 - If We Lived On A Mountaintop.wav" WAVE
TRACK 01 AUDIO
TITLE "If We Lived On A Mountaintop"
PERFORMER "Dottie Grossman & Michael Vlatkovich"
INDEX 01 00:00:00
FILE "02 - The Lady From Calcutta.wav" WAVE
TRACK 02 AUDIO
TITLE "The Lady From Calcutta"
PERFORMER "Dottie Grossman & Michael Vlatkovich"
INDEX 01 00:00:00
FILE "03 - What If Another Caveman.wav" WAVE
TRACK 03 AUDIO
TITLE "What If Another Caveman"
PERFORMER "Dottie Grossman & Michael Vlatkovich"
INDEX 01 00:00:00
FILE "04 - This Poem Is Part Cartoon.wav" WAVE
TRACK 04 AUDIO
TITLE "This Poem Is Part Cartoon"
PERFORMER "Dottie Grossman & Michael Vlatkovich"
INDEX 01 00:00:00
FILE "05 - I'm Grown Up Now.wav" WAVE
TRACK 05 AUDIO
TITLE "I'm Grown Up Now"
PERFORMER "Dottie Grossman & Michael Vlatkovich"
INDEX 01 00:00:00
FILE "06 - The Hum Of A Place.wav" WAVE
TRACK 06 AUDIO
TITLE "The Hum Of A Place"
PERFORMER "Dottie Grossman & Michael Vlatkovich"
INDEX 01 00:00:00
FILE "07 - In A Sleep , In The Dream , In Recurring Cary Grant.wav" WAVE
TRACK 07 AUDIO
TITLE "In A Sleep / In The Dream / In Recurring Cary Grant"
PERFORMER "Dottie Grossman & Michael Vlatkovich"
INDEX 01 00:00:00
FILE "08 - Today I Bought.wav" WAVE
TRACK 08 AUDIO
TITLE "Today I Bought"
PERFORMER "Dottie Grossman & Michael Vlatkovich"
INDEX 01 00:00:00
FILE "09 - In The Canyons Below.wav" WAVE
TRACK 09 AUDIO
TITLE "In The Canyons Below"
PERFORMER "Dottie Grossman & Michael Vlatkovich"
INDEX 01 00:00:00
FILE "10 - In The Evening.wav" WAVE
TRACK 10 AUDIO
TITLE "In The Evening"
PERFORMER "Dottie Grossman & Michael Vlatkovich"
INDEX 01 00:00:00
FILE "11 - There Has Been.wav" WAVE
TRACK 11 AUDIO
TITLE "There Has Been"
PERFORMER "Dottie Grossman & Michael Vlatkovich"
INDEX 01 00:00:00
FILE "12 - Three Henny Youngman Poems.wav" WAVE
TRACK 12 AUDIO
TITLE "Three Henny Youngman Poems"
PERFORMER "Dottie Grossman & Michael Vlatkovich"
INDEX 01 00:00:00
FILE "13 - Dear Terre Haute.wav" WAVE
TRACK 13 AUDIO
TITLE "Dear Terre Haute"
PERFORMER "Dottie Grossman & Michael Vlatkovich"
INDEX 01 00:00:00
FILE "14 - We Waited The Storm Out.wav" WAVE
TRACK 14 AUDIO
TITLE "We Waited The Storm Out"
PERFORMER "Dottie Grossman & Michael Vlatkovich"
INDEX 01 00:00:00
FILE "15 - On A Navy-Blue Night.wav" WAVE
TRACK 15 AUDIO
TITLE "On A Navy-Blue Night"
PERFORMER "Dottie Grossman & Michael Vlatkovich"
INDEX 01 00:00:00
FILE "16 - Two About Movie Stars.wav" WAVE
TRACK 16 AUDIO
TITLE "Two About Movie Stars"
PERFORMER "Dottie Grossman & Michael Vlatkovich"
INDEX 01 00:00:00
FILE "17 - The Man Who Is More Like The Murderer On His Way.wav" WAVE
TRACK 17 AUDIO
TITLE "The Man Who Is More Like The Murderer On His Way"
PERFORMER "Dottie Grossman & Michael Vlatkovich"
INDEX 01 00:00:00
FILE "18 - Ten P.M..wav" WAVE
TRACK 18 AUDIO
TITLE "Ten P.M."
PERFORMER "Dottie Grossman & Michael Vlatkovich"
INDEX 01 00:00:00
FILE "19 - Six Short Cat Poems.wav" WAVE
TRACK 19 AUDIO
TITLE "Six Short Cat Poems"
PERFORMER "Dottie Grossman & Michael Vlatkovich"
INDEX 01 00:00:00
FILE "20 - The Man Who Loves His Job Makes A Poem.wav" WAVE
TRACK 20 AUDIO
TITLE "The Man Who Loves His Job Makes A Poem"
PERFORMER "Dottie Grossman & Michael Vlatkovich"
INDEX 01 00:00:00
FILE "21 - You Make Me Laugh Easily.wav" WAVE
TRACK 21 AUDIO
TITLE "You Make Me Laugh Easily"
PERFORMER "Dottie Grossman & Michael Vlatkovich"
INDEX 01 00:00:00
FILE "22 - Three Henny Youngman Poems.wav" WAVE
TRACK 22 AUDIO
TITLE "Three Henny Youngman Poems"
PERFORMER "Dottie Grossman & Michael Vlatkovich"
INDEX 01 00:00:00
FILE "23 - Two Appropriations.wav" WAVE
TRACK 23 AUDIO
TITLE "Two Appropriations"
PERFORMER "Dottie Grossman & Michael Vlatkovich"
INDEX 01 00:00:00
FILE "24 - My Hairdresser Tells Me.wav" WAVE
TRACK 24 AUDIO
TITLE "My Hairdresser Tells Me"
PERFORMER "Dottie Grossman & Michael Vlatkovich"
INDEX 01 00:00:00
FILE "25 - Daughter.wav" WAVE
TRACK 25 AUDIO
TITLE "Daughter"
PERFORMER "Dottie Grossman & Michael Vlatkovich"
INDEX 01 00:00:00
FILE "26 - In My Pre-Adolescent.wav" WAVE
TRACK 26 AUDIO
TITLE "In My Pre-Adolescent"
PERFORMER "Dottie Grossman & Michael Vlatkovich"
INDEX 01 00:00:00
FILE "27 - Once Upon A Time.wav" WAVE
TRACK 27 AUDIO
TITLE "Once Upon A Time"
PERFORMER "Dottie Grossman & Michael Vlatkovich"
INDEX 01 00:00:00
FILE "28 - Two Short Ones.wav" WAVE
TRACK 28 AUDIO
TITLE "Two Short Ones"
PERFORMER "Dottie Grossman & Michael Vlatkovich"
INDEX 01 00:00:00
FILE "29 - Three Short Ones.wav" WAVE
TRACK 29 AUDIO
TITLE "Three Short Ones"
PERFORMER "Dottie Grossman & Michael Vlatkovich"
INDEX 01 00:00:00
FILE "30 - The Weekend Begins.wav" WAVE
TRACK 30 AUDIO
TITLE "The Weekend Begins"
PERFORMER "Dottie Grossman & Michael Vlatkovich"
INDEX 01 00:00:00
FILE "31 - Two In A Row.wav" WAVE
TRACK 31 AUDIO
TITLE "Two In A Row"
PERFORMER "Dottie Grossman & Michael Vlatkovich"
INDEX 01 00:00:00
FILE "32 - Two About Geography.wav" WAVE
TRACK 32 AUDIO
TITLE "Two About Geography"
PERFORMER "Dottie Grossman & Michael Vlatkovich"
INDEX 01 00:00:00
FILE "33 - Two More In A Row.wav" WAVE
TRACK 33 AUDIO
TITLE "Two More In A Row"
PERFORMER "Dottie Grossman & Michael Vlatkovich"
INDEX 01 00:00:00
FILE "34 - Two That Seem To Go Together.wav" WAVE
TRACK 34 AUDIO
TITLE "Two That Seem To Go Together"
PERFORMER "Dottie Grossman & Michael Vlatkovich"
INDEX 01 00:00:00
FILE "35 - ...And Three More Henny Youngman Poems.wav" WAVE
TRACK 35 AUDIO
TITLE "...And Three More Henny Youngman Poems"
PERFORMER "Dottie Grossman & Michael Vlatkovich"
INDEX 01 00:00:00
 
Лог проверки качества
d:\>d:\aucdtect -d/-m0 d:\zzz\*.wav
auCDtect: CD records authenticity detector, version 0.8.2
Copyright (c) 2004 Oleg Berngardt. All rights reserved.
Copyright (c) 2004 Alexander Djourik. All rights reserved.
------------------------------------------------------------
Processing file: [01. If We Lived On A Mountaintop.wav]
------------------------------------------------------------
This track looks like CDDA with probability 100%
------------------------------------------------------------
Processing file: [02. The Lady From Calcutta.wav]
------------------------------------------------------------
This track looks like CDDA with probability 100%
------------------------------------------------------------
Processing file: [03. What If Another Caveman.wav]
------------------------------------------------------------
This track looks like CDDA with probability 100%
------------------------------------------------------------
Processing file: [04. This Poem Is Part Cartoon.wav]
------------------------------------------------------------
This track looks like CDDA with probability 100%
------------------------------------------------------------
Processing file: [05. I'm Grown Up Now.wav]
------------------------------------------------------------
This track looks like CDDA with probability 100%
------------------------------------------------------------
Processing file: [06. The Hum Of A Place.wav]
------------------------------------------------------------
This track looks like CDDA with probability 100%
------------------------------------------------------------
Processing file: [07. In A Sleep - In The Dream - In Recurring Cary Grant.wav]
------------------------------------------------------------
This track looks like CDDA with probability 99%
------------------------------------------------------------
Processing file: [08. Today I Bought.wav]
------------------------------------------------------------
This track looks like CDDA with probability 100%
------------------------------------------------------------
Processing file: [09. In The Canyons Below.wav]
------------------------------------------------------------
This track looks like CDDA with probability 100%
------------------------------------------------------------
Processing file: [10. In The Evening.wav]
------------------------------------------------------------
This track looks like CDDA with probability 100%
------------------------------------------------------------
Processing file: [11. There Has Been.wav]
------------------------------------------------------------
This track looks like CDDA with probability 100%
------------------------------------------------------------
Processing file: [12. Three Henny Youngman Poems.wav]
------------------------------------------------------------
This track looks like CDDA with probability 100%
------------------------------------------------------------
Processing file: [13. Dear Terre Haute.wav]
------------------------------------------------------------
This track looks like CDDA with probability 100%
------------------------------------------------------------
Processing file: [14. We Waited The Storm Out.wav]
------------------------------------------------------------
This track looks like CDDA with probability 100%
------------------------------------------------------------
Processing file: [15. On A Navy-Blue Night.wav]
------------------------------------------------------------
This track looks like CDDA with probability 100%
------------------------------------------------------------
Processing file: [16. Two About Movie Stars.wav]
------------------------------------------------------------
This track looks like CDDA with probability 100%
------------------------------------------------------------
Processing file: [17. The Man Who Is More Like The Murderer On His Way.wav]
------------------------------------------------------------
This track looks like CDDA with probability 100%
------------------------------------------------------------
Processing file: [18. Ten P.M..wav]
------------------------------------------------------------
This track looks like CDDA with probability 100%
------------------------------------------------------------
Processing file: [19. Six Short Cat Poems.wav]
------------------------------------------------------------
This track looks like CDDA with probability 100%
------------------------------------------------------------
Processing file: [20. The Man Who Loves His Job Makes A Poem.wav]
------------------------------------------------------------
This track looks like CDDA with probability 100%
------------------------------------------------------------
Processing file: [21. You Make Me Laugh Easily.wav]
------------------------------------------------------------
This track looks like CDDA with probability 100%
------------------------------------------------------------
Processing file: [22. Three Henny Youngman Poems.wav]
------------------------------------------------------------
This track looks like CDDA with probability 100%
------------------------------------------------------------
Processing file: [23. Two Appropriations.wav]
------------------------------------------------------------
This track looks like CDDA with probability 100%
------------------------------------------------------------
Processing file: [24. My Hairdresser Tells Me.wav]
------------------------------------------------------------
This track looks like CDDA with probability 100%
------------------------------------------------------------
Processing file: [25. Daughter.wav]
------------------------------------------------------------
This track looks like CDDA with probability 100%
------------------------------------------------------------
Processing file: [26. In My Pre-Adolescent.wav]
------------------------------------------------------------
This track looks like CDDA with probability 100%
------------------------------------------------------------
Processing file: [27. Once Upon A Time.wav]
------------------------------------------------------------
This track looks like CDDA with probability 100%
------------------------------------------------------------
Processing file: [28. Two Short Ones.wav]
------------------------------------------------------------
This track looks like CDDA with probability 100%
------------------------------------------------------------
Processing file: [29. Three Short Ones.wav]
------------------------------------------------------------
This track looks like CDDA with probability 100%
------------------------------------------------------------
Processing file: [30. The Weekend Begins.wav]
------------------------------------------------------------
This track looks like CDDA with probability 100%
------------------------------------------------------------
Processing file: [31. Two In A Row.wav]
------------------------------------------------------------
This track looks like CDDA with probability 99%
------------------------------------------------------------
Processing file: [32. Two About Geography.wav]
------------------------------------------------------------
This track looks like CDDA with probability 100%
------------------------------------------------------------
Processing file: [33. Two More In A Row.wav]
------------------------------------------------------------
This track looks like CDDA with probability 100%
------------------------------------------------------------
Processing file: [34. Two That Seem To Go Together.wav]
------------------------------------------------------------
This track looks like CDDA with probability 100%
------------------------------------------------------------
Processing file: [35. ...And Three More Henny Youngman Poems.wav]
------------------------------------------------------------
This track looks like CDDA with probability 100%
------------------------------------------------------------
Final Conclusion:
------------------------------------------------------------
These tracks looks like CDDA with probability 100%
Доп. информация:
 
Album Info & AMG Review
Executive producer: Jeff Gauthier
Art: Billy Mintz
Design and layout: Jeff Kaiser and Dottie Grossman
Engineers: Garth Powell and Scott Looney
Best boys: Garth Powell and Jeff Gauthier
Recorded: 6 March 2004, 1510 Studios, Oakland, CA
Recorded in real time with no overdubs or edits
The concept is simple. Call and Response: Thirty-five very short poems written and recited by Dottie Grossman and answered freely by trombonist Michael Vlatkovich. The text from each poem is printed in the accompanying booklet, and articulated on each track by Grossman in a deadpan voice, after which Vlatkovich comments musically. None of the tracks lasts three minutes, and several are under a minute. A typical (complete) poem: "In the dream of skyscrapers as paper dolls, each has its wardrobe of tenants that can be moved around forever." Grossman's voice is so flat and her words often so absurd that the project almost comes across as a big joke, but one in which the listener is a full participant. Vlatkovich is disarmingly clever on trombone, squeezing out his notes, flaunting his breath, using mutes and trills, and having a good time. He improvises with the words in mind: If the poem alludes to children, he inserts a children's tune; if it is upbeat, so is he; if it references a horse, he neighs on the horn; and so on. Vlatkovich is critical to the project's success because he infuses what are often (purposefully) mundane observations with technically impressive improvisations, resulting in something alluring and fascinating. His playing on trombone has improved dramatically through the years, and at the time of this recording he boasted a fully developed tone and technique. Grossman and Vlatkovich avoid the common pitfalls of poetry and jazz combinations: poor articulation; and the irrelevance of the music to the words. This one may begin as a curiosity, but any album that holds the interest of the listener for thirty-five poems with only a single accompanist is something worth exploring.
 
Состав
Poems written and read by Dottie Grossman
Trombone improvisations by Michael Vlatkovich
Any questions -> support@pro-jazz.com. По всем вопросам пишите -> support@pro-jazz.com
22:34
141
Нет комментариев. Ваш будет первым!