Вы используете незарегистрированную версию компонента "Вкладки"!

Поиск

(Avant-Garde Jazz, Modern Composition, pfMENTUM) [CD] The Jeff Kaiser Ockodektet & The Kaiser/Diaz-Infante Sextet - The Alchemical Mass & Suite Solutio - 2004, FLAC (tracks+.cue), lossless

(Avant-Garde Jazz, Modern Composition, pfMENTUM) [CD] The Jeff Kaiser Ockodektet & The Kaiser/Diaz-Infante Sextet - The Alchemical Mass & Suite Solutio - 2004, FLAC (tracks+.cue), lossless
Треклист:
The Jeff Kaiser Ockodektet & The Kaiser/Diaz-Infante Sextet / The Alchemical Mass & Suite Solutio
Жанр: Avant-Garde Jazz, Modern Composition, pfMENTUM
Носитель: CD
Страна-производитель диска: US
Год издания: 2004
Издатель (лейбл): pfMENTUM
Номер по каталогу: CD019
Страна: US
Аудиокодек: FLAC (*.flac)
Тип рипа: tracks+.cue
Битрейт аудио: lossless
Продолжительность: 53:24
Источник (релизер): свой фирменный диск
Наличие сканов в содержимом раздачи:
Треклист:
The Jeff Kaiser Ockodektet with The Ojai Camerata: The Alchemical Mass
1. Introitus 10:28
2. Kyrie 3:00
3. Collecta And Gloria 2:33
4. Epistola And Graduale 1:44
5. Offertorium 9:03
6. Ave Maria And Commune 7:16
Kaiser / Diaz-Infante Sextet: Suite Solutio
7. Part I 2:38
8. Part II 1:25
9. Part III 5:06
10. Part IV 5:49
11. Part V 4:19
 
Лог создания рипа
Exact Audio Copy V1.0 beta 3 from 29. August 2011
EAC extraction logfile from 9. January 2014, 20:52
The Jeff Kaiser Ockodektet & The Kaiser / Diaz-Infante Sextet / The Alchemical Mass & Suite Solutio
Used drive : PIONEER DVD-RW DVR-115D Adapter: 0 ID: 0
Read mode : Secure
Utilize accurate stream : Yes
Defeat audio cache : Yes
Make use of C2 pointers : No
Read offset correction : 48
Overread into Lead-In and Lead-Out : No
Fill up missing offset samples with silence : Yes
Delete leading and trailing silent blocks : No
Null samples used in CRC calculations : Yes
Used interface : Installed external ASPI interface
Gap handling : Appended to previous track
Used output format : User Defined Encoder
Selected bitrate : 896 kBit/s
Quality : High
Add ID3 tag : No
Command line compressor : C:\Program Files\Exact Audio Copy\FLAC\FLAC.EXE
Additional command line options : -6 -V -T "ARTIST=%artist%" -T "TITLE=%title%" -T "ALBUM=%albumtitle%" -T "DATE=%year%" -T "TRACKNUMBER=%tracknr%" -T "GENRE=%genre%" -T "COMMENT=%comment%" -T "BAND=%albuminterpret%" -T "COMPOSER=%composer%" %haslyrics%--tag-from-file=LYRICS="%lyricsfile%"%haslyrics% -T "DISCNUMBER=%cdnumber%" -T "TOTALDISCS=%totalcds%" -T "TOTALTRACKS=%numtracks%" %hascover%--picture="%coverfile%"%hascover% %source% -o %dest%
TOC of the extracted CD
Track | Start | Length | Start sector | End sector
---------------------------------------------------------
1 | 0:00.00 | 10:28.16 | 0 | 47115
2 | 10:28.16 | 3:00.57 | 47116 | 60672
3 | 13:28.73 | 2:33.43 | 60673 | 72190
4 | 16:02.41 | 1:44.44 | 72191 | 80034
5 | 17:47.10 | 9:03.66 | 80035 | 120825
6 | 26:51.01 | 7:16.10 | 120826 | 153535
7 | 34:07.11 | 2:38.23 | 153536 | 165408
8 | 36:45.34 | 1:25.17 | 165409 | 171800
9 | 38:10.51 | 5:06.03 | 171801 | 194753
10 | 43:16.54 | 5:49.16 | 194754 | 220944
11 | 49:05.70 | 4:19.01 | 220945 | 240370
Track 1
Filename D:\zzz\01 - The Alchemical Mass I - Introitus.wav
Pre-gap length 0:00:02.00
Peak level 96.6 %
Extraction speed 5.1 X
Track quality 100.0 %
Test CRC 3B3512CB
Copy CRC 3B3512CB
Track not present in AccurateRip database
Copy OK
Track 2
Filename D:\zzz\02 - The Alchemical Mass II - Kyrie.wav
Peak level 96.6 %
Extraction speed 5.1 X
Track quality 100.0 %
Test CRC FE4B4F78
Copy CRC FE4B4F78
Track not present in AccurateRip database
Copy OK
Track 3
Filename D:\zzz\03 - The Alchemical Mass III - Collecta And Gloria.wav
Peak level 96.6 %
Extraction speed 5.2 X
Track quality 100.0 %
Test CRC 572A1EC5
Copy CRC 572A1EC5
Track not present in AccurateRip database
Copy OK
Track 4
Filename D:\zzz\04 - The Alchemical Mass IV - Epistola And Graduale.wav
Peak level 96.6 %
Extraction speed 3.9 X
Track quality 99.8 %
Test CRC CFB0B44F
Copy CRC CFB0B44F
Track not present in AccurateRip database
Copy OK
Track 5
Filename D:\zzz\05 - The Alchemical Mass V - Offertorium.wav
Peak level 96.6 %
Extraction speed 6.7 X
Track quality 100.0 %
Test CRC 02A4005C
Copy CRC 02A4005C
Track not present in AccurateRip database
Copy OK
Track 6
Filename D:\zzz\06 - The Alchemical Mass VI - Ave Maria And Commune.wav
Peak level 87.6 %
Extraction speed 7.1 X
Track quality 100.0 %
Test CRC 59D7D5C7
Copy CRC 59D7D5C7
Track not present in AccurateRip database
Copy OK
Track 7
Filename D:\zzz\07 - Suite Solutio - Part I.wav
Pre-gap length 0:00:05.00
Peak level 96.6 %
Extraction speed 6.6 X
Track quality 100.0 %
Test CRC C4A00A48
Copy CRC C4A00A48
Track not present in AccurateRip database
Copy OK
Track 8
Filename D:\zzz\08 - Suite Solutio - Part II.wav
Peak level 96.6 %
Extraction speed 5.8 X
Track quality 100.0 %
Test CRC B09F4DF1
Copy CRC B09F4DF1
Track not present in AccurateRip database
Copy OK
Track 9
Filename D:\zzz\09 - Suite Solutio - Part III.wav
Peak level 96.6 %
Extraction speed 7.5 X
Track quality 100.0 %
Test CRC 31DCC5DD
Copy CRC 31DCC5DD
Track not present in AccurateRip database
Copy OK
Track 10
Filename D:\zzz\10 - Suite Solutio - Part IV.wav
Peak level 96.6 %
Extraction speed 7.9 X
Track quality 100.0 %
Test CRC 63447186
Copy CRC 63447186
Track not present in AccurateRip database
Copy OK
Track 11
Filename D:\zzz\11 - Suite Solutio - Part V.wav
Peak level 96.6 %
Extraction speed 8.0 X
Track quality 100.0 %
Test CRC CAE532B6
Copy CRC CAE532B6
Track not present in AccurateRip database
Copy OK
None of the tracks are present in the AccurateRip database
No errors occurred
End of status report
==== Log checksum ABA7DA74CF1323E6D4B8797F42C05F1D55D5018536A1DEEE2720466AFB4580C9 ====
 
Содержание индексной карты (.CUE)
REM GENRE "Avant-Garde Jazz"
REM DATE 2004
REM DISCID 990C840B
REM COMMENT "ExactAudioCopy v1.0b3"
PERFORMER "The Jeff Kaiser Ockodektet & The Kaiser / Diaz-Infante Sextet"
TITLE "The Alchemical Mass & Suite Solutio"
FILE "01 - The Alchemical Mass I - Introitus.wav" WAVE
TRACK 01 AUDIO
TITLE "The Alchemical Mass I - Introitus"
PERFORMER "The Jeff Kaiser Ockodektet & The Kaiser / Diaz-Infante Sextet"
INDEX 01 00:00:00
FILE "02 - The Alchemical Mass II - Kyrie.wav" WAVE
TRACK 02 AUDIO
TITLE "The Alchemical Mass II - Kyrie"
PERFORMER "The Jeff Kaiser Ockodektet & The Kaiser / Diaz-Infante Sextet"
INDEX 01 00:00:00
FILE "03 - The Alchemical Mass III - Collecta And Gloria.wav" WAVE
TRACK 03 AUDIO
TITLE "The Alchemical Mass III - Collecta And Gloria"
PERFORMER "The Jeff Kaiser Ockodektet & The Kaiser / Diaz-Infante Sextet"
INDEX 01 00:00:00
FILE "04 - The Alchemical Mass IV - Epistola And Graduale.wav" WAVE
TRACK 04 AUDIO
TITLE "The Alchemical Mass IV - Epistola And Graduale"
PERFORMER "The Jeff Kaiser Ockodektet & The Kaiser / Diaz-Infante Sextet"
INDEX 01 00:00:00
FILE "05 - The Alchemical Mass V - Offertorium.wav" WAVE
TRACK 05 AUDIO
TITLE "The Alchemical Mass V - Offertorium"
PERFORMER "The Jeff Kaiser Ockodektet & The Kaiser / Diaz-Infante Sextet"
INDEX 01 00:00:00
FILE "06 - The Alchemical Mass VI - Ave Maria And Commune.wav" WAVE
TRACK 06 AUDIO
TITLE "The Alchemical Mass VI - Ave Maria And Commune"
PERFORMER "The Jeff Kaiser Ockodektet & The Kaiser / Diaz-Infante Sextet"
INDEX 01 00:00:00
TRACK 07 AUDIO
TITLE "Suite Solutio - Part I"
PERFORMER "The Jeff Kaiser Ockodektet & The Kaiser / Diaz-Infante Sextet"
INDEX 00 07:11:10
FILE "07 - Suite Solutio - Part I.wav" WAVE
INDEX 01 00:00:00
FILE "08 - Suite Solutio - Part II.wav" WAVE
TRACK 08 AUDIO
TITLE "Suite Solutio - Part II"
PERFORMER "The Jeff Kaiser Ockodektet & The Kaiser / Diaz-Infante Sextet"
INDEX 01 00:00:00
FILE "09 - Suite Solutio - Part III.wav" WAVE
TRACK 09 AUDIO
TITLE "Suite Solutio - Part III"
PERFORMER "The Jeff Kaiser Ockodektet & The Kaiser / Diaz-Infante Sextet"
INDEX 01 00:00:00
FILE "10 - Suite Solutio - Part IV.wav" WAVE
TRACK 10 AUDIO
TITLE "Suite Solutio - Part IV"
PERFORMER "The Jeff Kaiser Ockodektet & The Kaiser / Diaz-Infante Sextet"
INDEX 01 00:00:00
FILE "11 - Suite Solutio - Part V.wav" WAVE
TRACK 11 AUDIO
TITLE "Suite Solutio - Part V"
PERFORMER "The Jeff Kaiser Ockodektet & The Kaiser / Diaz-Infante Sextet"
INDEX 01 00:00:00
 
Лог проверки качества
d:\>d:\aucdtect -d/-m0 d:\zzz\*.wav
auCDtect: CD records authenticity detector, version 0.8.2
Copyright (c) 2004 Oleg Berngardt. All rights reserved.
Copyright (c) 2004 Alexander Djourik. All rights reserved.
------------------------------------------------------------
Processing file: [01. The Alchemical Mass I - Introitus.wav]
------------------------------------------------------------
This track looks like CDDA with probability 100%
------------------------------------------------------------
Processing file: [02. The Alchemical Mass II - Kyrie.wav]
------------------------------------------------------------
This track looks like CDDA with probability 100%
------------------------------------------------------------
Processing file: [03. The Alchemical Mass III - Collecta And Gloria.wav]
------------------------------------------------------------
This track looks like CDDA with probability 99%
------------------------------------------------------------
Processing file: [04. The Alchemical Mass IV - Epistola And Graduale.wav]
------------------------------------------------------------
This track looks like CDDA with probability 100%
------------------------------------------------------------
Processing file: [05. The Alchemical Mass V - Offertorium.wav]
------------------------------------------------------------
This track looks like CDDA with probability 100%
------------------------------------------------------------
Processing file: [06. The Alchemical Mass VI - Ave Maria And Commune.wav]
------------------------------------------------------------
This track looks like CDDA with probability 100%
------------------------------------------------------------
Processing file: [07. Suite Solutio - Part I.wav]
------------------------------------------------------------
This track looks like CDDA with probability 100%
------------------------------------------------------------
Processing file: [08. Suite Solutio - Part II.wav]
------------------------------------------------------------
This track looks like CDDA with probability 100%
------------------------------------------------------------
Processing file: [09. Suite Solutio - Part III.wav]
------------------------------------------------------------
This track looks like CDDA with probability 99%
------------------------------------------------------------
Processing file: [10. Suite Solutio - Part IV.wav]
------------------------------------------------------------
This track looks like CDDA with probability 100%
------------------------------------------------------------
Processing file: [11. Suite Solutio - Part V.wav]
------------------------------------------------------------
This track looks like CDDA with probability 100%
------------------------------------------------------------
Final Conclusion:
------------------------------------------------------------
These tracks looks like CDDA with probability 100%
Доп. информация:
 
Album Info & AMG Review
All compositions and arrangements by Jeff Kaiser
The Alchemical Mass was recorded 4.26.03 at the First United Methodist Church in Ventura, CA
Recorded, mixed and mastered by Wayne Peet
Suite Solutio was recorded 2.25.01 at Zircon Skye in Ojai, CA
Recorded by Jeff Evans. Mixed and mastered by Jeff Kaiser
Photographs by Michael Kelly
Design and layout by Jeff Kaiser
Jeff Kaiser's most ambitious project to date, "The Alchemical Mass" is a 33-minute work for a large group of avant-garde musicians/improvisers (the Jeff Kaiser Ockodektet) and mixed chorus (the Ojai Camerata, which commissioned the piece). Based on fragments from a Latin text written by Nicholas Melchior Cibenensis at the turn of the 16th century, the work combines elements of Gregorian chant, Verdi's thunderous Requiem, and conducted texture-based group improvisation. The result is striking (to say the least), powerful, mysterious, and profoundly unique. Some free-form passages seem to lack purpose (especially "Introitus"), but otherwise the interaction between ensemble and choir is highly evocative of the mysteries of Magick. Listeners familiar with the Ockodektet's previous two albums will recognize Kaiser's approach to massed improvisation, but the music here is much darker and solemn (although it never even brushes the kind of rigidity usually found in liturgical music). "Ave Maria and Commune," where Kaiser draws captivating vocal textures from the Ojai Camerata, is his most singular piece of music to date. The sound quality is fine, especially considering the shoestring budget such large projects are recorded on, but better separation between the instruments is still to be hoped for. "Suite Solutio," the second piece on this album, is a very different thing. Performed by the Kaiser/Diaz-Infante Sextet, with Kaiser on trumpet (he only conducts in "The Alchemical Mass"), Ernesto Diaz-Infante on prepared acoustic guitar, trombonist Scot Ray, bassist Jim Connolly, Brad Dutz on percussion, and Richie West on drums, the five-part suite includes fast-paced avant-swing passages, brief Latin American grooves, and extended ad libs. A little bit of the previous work's mood has been carried over, mostly in the pace of each section. The up-close recording of this piece allows one to focus much more closely on individual performances. The interplay between Kaiser and Ray, Dutz's endless resourcefulness, and Diaz-Infante's equivocal contributions are what drive the piece forward, but after the grandiloquence of "The Alchemical Mass," "Suite Solutio" requires several listens before leaving any kind of impression.
 
Состав
Woodwinds: Vinny Golia, Eric Barber, Jason Mears (1-6)
Trumpet/Flugelhorn: Kris Tiner (1-6), Jeff Kaiser (5,7-11)
Trombone: Michael Vlatkovich (1-6), Scot Ray (7-11)
Tuba: Mark Weaver (1-6)
Bass: Jim Connolly
Prepared acoustic guitar: Ernesto Diaz-Infante
Acoustic piano: Wayne Peet (1-6)
Percussion: Brad Dutz
Drum set: Richie West
Conducted by Jeff Kaiser and Dr. Wyant Morton (1-6)
The Ojai Camerata
Sopranos: Diane Besocke, Candace Delbo, Eleanor Land, Laura Johnson-Bickford, Lu Setnicka
Altos: Gwen Erickson, Lisa Gordon, Katherine Halsey, Holly Mitchem, Zoe Pietrycha
Tenors: Carla Aiello, Jaye Hersh, J.B. White
Basses: Dave Farber, Jim Halverson, Kurt Meyer, Bill Wagner
Dr. Wyant Morton: director
Any questions -> support@pro-jazz.com. По всем вопросам пишите -> support@pro-jazz.com
22:34
195
Нет комментариев. Ваш будет первым!