Вы используете незарегистрированную версию компонента "Вкладки"!

Поиск

(Nine Winds, Avant-Garde Jazz, Big Band) [CD] The Vinny Golia Large Ensemble - Overview 1996-2006 (2CD+2DVD) - 2012, FLAC (tracks+.cue), lossless

(Nine Winds, Avant-Garde Jazz, Big Band) [CD] The Vinny Golia Large Ensemble - Overview 1996-2006 (2CD+2DVD) - 2012, FLAC (tracks+.cue), lossless
Треклист:
The Vinny Golia Large Ensemble / Overview 1996-2006 (2CD+2DVD)
Жанр: Nine Winds, Avant-Garde Jazz, Big Band
Носитель: CD
Страна-производитель диска: US
Год издания: 2012
Издатель (лейбл): 9 Winds Records
Номер по каталогу: NWCD/DVD 300
Страна: US
Аудиокодек: FLAC (*.flac)
Тип рипа: tracks+.cue
Битрейт аудио: lossless
Продолжительность: 69:01 + 59:17
Источник (релизер): свой фирменный диск
Наличие сканов в содержимом раздачи:
Треклист:
 
CD1
(Live In Portland 1996, First Set)
1. Escalanties
2. Transition
3. Critical Mystery
4. Robert's North Of Watford Rule
5. Transition
6. GCG / Carnivore
 
CD2
(Live In Los Angeles 2000, First Set)
1. Transition / Give Me The Pearl
2. Bot
3. Transition / Alone In A World Of His Own Creation
4. Alone In A World Of His Own Creation / Transition
5. Thread For Fred I
6. Thread For Fred II
7. Something Heard
 
Лог создания рипа
 
CD1
Exact Audio Copy V1.0 beta 3 from 29. August 2011
EAC extraction logfile from 4. January 2014, 20:32
The Vinny Golia Large Ensemble / Overview 1996-2006 CD1
Used drive : PIONEER DVD-RW DVR-115D Adapter: 0 ID: 0
Read mode : Burst
Read offset correction : 48
Overread into Lead-In and Lead-Out : No
Fill up missing offset samples with silence : Yes
Delete leading and trailing silent blocks : No
Null samples used in CRC calculations : Yes
Used interface : Installed external ASPI interface
Gap handling : Appended to previous track
Used output format : User Defined Encoder
Selected bitrate : 896 kBit/s
Quality : High
Add ID3 tag : No
Command line compressor : C:\Program Files\Exact Audio Copy\FLAC\FLAC.EXE
Additional command line options : -6 -V -T "ARTIST=%artist%" -T "TITLE=%title%" -T "ALBUM=%albumtitle%" -T "DATE=%year%" -T "TRACKNUMBER=%tracknr%" -T "GENRE=%genre%" -T "COMMENT=%comment%" -T "BAND=%albuminterpret%" -T "COMPOSER=%composer%" %haslyrics%--tag-from-file=LYRICS="%lyricsfile%"%haslyrics% -T "DISCNUMBER=%cdnumber%" -T "TOTALDISCS=%totalcds%" -T "TOTALTRACKS=%numtracks%" %hascover%--picture="%coverfile%"%hascover% %source% -o %dest%
TOC of the extracted CD
Track | Start | Length | Start sector | End sector
---------------------------------------------------------
1 | 0:00.00 | 16:38.70 | 0 | 74919
2 | 16:38.70 | 3:34.69 | 74920 | 91038
3 | 20:13.64 | 6:48.65 | 91039 | 121703
4 | 27:02.54 | 14:28.03 | 121704 | 186806
5 | 41:30.57 | 1:19.40 | 186807 | 192771
6 | 42:50.22 | 26:11.29 | 192772 | 310625
Track 1
Filename D:\zzz\01 - Escalanties.wav
Pre-gap length 0:00:02.00
Peak level 92.7 %
Extraction speed 21.7 X
Test CRC 3693614A
Copy CRC 3693614A
Track not present in AccurateRip database
Copy OK
Track 2
Filename D:\zzz\02 - Transition.wav
Peak level 33.5 %
Extraction speed 25.9 X
Test CRC 95815C99
Copy CRC 95815C99
Track not present in AccurateRip database
Copy OK
Track 3
Filename D:\zzz\03 - Critical Mystery.wav
Peak level 98.8 %
Extraction speed 28.1 X
Test CRC C73F1D75
Copy CRC C73F1D75
Track not present in AccurateRip database
Copy OK
Track 4
Filename D:\zzz\04 - Robert's North Of Watford Rule.wav
Peak level 98.8 %
Extraction speed 31.6 X
Test CRC 5AF48E07
Copy CRC 5AF48E07
Track not present in AccurateRip database
Copy OK
Track 5
Filename D:\zzz\05 - Transition.wav
Peak level 46.2 %
Extraction speed 33.2 X
Test CRC B8D04755
Copy CRC B8D04755
Track not present in AccurateRip database
Copy OK
Track 6
Filename D:\zzz\06 - GCG , Carnivore.wav
Peak level 98.8 %
Extraction speed 38.0 X
Test CRC F2D51385
Copy CRC 2ABFC3E5
Track not present in AccurateRip database
Copy OK
None of the tracks are present in the AccurateRip database
No errors occurred
End of status report
==== Log checksum 0D613A95B6B1844A3F5AB00062B9065772932015B4DD03DD0872DF67ADBA5799 ====
 
CD2
Exact Audio Copy V1.0 beta 3 from 29. August 2011
EAC extraction logfile from 4. January 2014, 22:35
The Vinny Golia Large Ensemble / Overview 1996-2006 CD2
Used drive : PIONEER DVD-RW DVR-115D Adapter: 0 ID: 0
Read mode : Secure
Utilize accurate stream : Yes
Defeat audio cache : Yes
Make use of C2 pointers : No
Read offset correction : 48
Overread into Lead-In and Lead-Out : No
Fill up missing offset samples with silence : Yes
Delete leading and trailing silent blocks : No
Null samples used in CRC calculations : Yes
Used interface : Installed external ASPI interface
Gap handling : Appended to previous track
Used output format : User Defined Encoder
Selected bitrate : 896 kBit/s
Quality : High
Add ID3 tag : No
Command line compressor : C:\Program Files\Exact Audio Copy\FLAC\FLAC.EXE
Additional command line options : -6 -V -T "ARTIST=%artist%" -T "TITLE=%title%" -T "ALBUM=%albumtitle%" -T "DATE=%year%" -T "TRACKNUMBER=%tracknr%" -T "GENRE=%genre%" -T "COMMENT=%comment%" -T "BAND=%albuminterpret%" -T "COMPOSER=%composer%" %haslyrics%--tag-from-file=LYRICS="%lyricsfile%"%haslyrics% -T "DISCNUMBER=%cdnumber%" -T "TOTALDISCS=%totalcds%" -T "TOTALTRACKS=%numtracks%" %hascover%--picture="%coverfile%"%hascover% %source% -o %dest%
TOC of the extracted CD
Track | Start | Length | Start sector | End sector
---------------------------------------------------------
1 | 0:00.00 | 7:09.68 | 0 | 32242
2 | 7:09.68 | 9:47.74 | 32243 | 76341
3 | 16:57.67 | 11:11.67 | 76342 | 126733
4 | 28:09.59 | 9:24.43 | 126734 | 169076
5 | 37:34.27 | 5:13.43 | 169077 | 192594
6 | 42:47.70 | 11:46.63 | 192595 | 245607
7 | 54:34.58 | 4:42.70 | 245608 | 266827
Track 1
Filename D:\zzz\01 - Transition , Give Me The Pearl.wav
Pre-gap length 0:00:02.00
Peak level 96.6 %
Extraction speed 4.4 X
Track quality 99.9 %
Test CRC 114195C2
Copy CRC 114195C2
Track not present in AccurateRip database
Copy OK
Track 2
Filename D:\zzz\02 - Bot.wav
Peak level 96.6 %
Extraction speed 5.4 X
Track quality 99.9 %
Test CRC 3ECA7ACE
Copy CRC 3ECA7ACE
Track not present in AccurateRip database
Copy OK
Track 3
Filename D:\zzz\03 - Transition , Alone In A World Of His Own Creation.wav
Peak level 96.6 %
Extraction speed 6.7 X
Track quality 100.0 %
Test CRC 13648CCD
Copy CRC 13648CCD
Track not present in AccurateRip database
Copy OK
Track 4
Filename D:\zzz\04 - Alone In A World Of His Own Creation , Transition.wav
Peak level 96.6 %
Extraction speed 7.4 X
Track quality 100.0 %
Test CRC 61D79AE8
Copy CRC 61D79AE8
Track not present in AccurateRip database
Copy OK
Track 5
Filename D:\zzz\05 - Thread For Fred I.wav
Peak level 96.6 %
Extraction speed 7.5 X
Track quality 100.0 %
Test CRC 0E53D187
Copy CRC 0E53D187
Track not present in AccurateRip database
Copy OK
Track 6
Filename D:\zzz\06 - Thread For Fred II.wav
Peak level 96.6 %
Extraction speed 8.0 X
Track quality 99.9 %
Test CRC 81041677
Copy CRC 81041677
Track not present in AccurateRip database
Copy OK
Track 7
Filename D:\zzz\07 - Something Heard.wav
Peak level 96.6 %
Extraction speed 8.3 X
Track quality 100.0 %
Test CRC 42CEACA1
Copy CRC 42CEACA1
Track not present in AccurateRip database
Copy OK
None of the tracks are present in the AccurateRip database
No errors occurred
End of status report
==== Log checksum 06951F512128E45D34E6F67422A33F4CA998487A09D232DB464D5E85B40AF961 ====
 
Содержание индексной карты (.CUE)
 
CD1
REM GENRE "Avant-Garde Jazz"
REM DATE 2012
REM DISCID 3A102D06
REM COMMENT "ExactAudioCopy v1.0b3"
PERFORMER "The Vinny Golia Large Ensemble"
TITLE "Overview 1996-2006 CD1"
FILE "01 - Escalanties.wav" WAVE
TRACK 01 AUDIO
TITLE "Escalanties"
PERFORMER "The Vinny Golia Large Ensemble"
INDEX 01 00:00:00
FILE "02 - Transition.wav" WAVE
TRACK 02 AUDIO
TITLE "Transition"
PERFORMER "The Vinny Golia Large Ensemble"
INDEX 01 00:00:00
FILE "03 - Critical Mystery.wav" WAVE
TRACK 03 AUDIO
TITLE "Critical Mystery"
PERFORMER "The Vinny Golia Large Ensemble"
INDEX 01 00:00:00
FILE "04 - Robert's North Of Watford Rule.wav" WAVE
TRACK 04 AUDIO
TITLE "Robert's North Of Watford Rule"
PERFORMER "The Vinny Golia Large Ensemble"
INDEX 01 00:00:00
FILE "05 - Transition.wav" WAVE
TRACK 05 AUDIO
TITLE "Transition"
PERFORMER "The Vinny Golia Large Ensemble"
INDEX 01 00:00:00
FILE "06 - GCG , Carnivore.wav" WAVE
TRACK 06 AUDIO
TITLE "GCG / Carnivore"
PERFORMER "The Vinny Golia Large Ensemble"
INDEX 01 00:00:00
 
CD2
REM GENRE "Avant-Garde Jazz"
REM DATE 2012
REM DISCID 5D0DE507
REM COMMENT "ExactAudioCopy v1.0b3"
PERFORMER "The Vinny Golia Large Ensemble"
TITLE "Overview 1996-2006 CD2"
FILE "01 - Transition , Give Me The Pearl.wav" WAVE
TRACK 01 AUDIO
TITLE "Transition / Give Me The Pearl"
PERFORMER "The Vinny Golia Large Ensemble"
INDEX 01 00:00:00
FILE "02 - Bot.wav" WAVE
TRACK 02 AUDIO
TITLE "Bot"
PERFORMER "The Vinny Golia Large Ensemble"
INDEX 01 00:00:00
FILE "03 - Transition , Alone In A World Of His Own Creation.wav" WAVE
TRACK 03 AUDIO
TITLE "Transition / Alone In A World Of His Own Creation"
PERFORMER "The Vinny Golia Large Ensemble"
INDEX 01 00:00:00
FILE "04 - Alone In A World Of His Own Creation , Transition.wav" WAVE
TRACK 04 AUDIO
TITLE "Alone In A World Of His Own Creation / Transition"
PERFORMER "The Vinny Golia Large Ensemble"
INDEX 01 00:00:00
FILE "05 - Thread For Fred I.wav" WAVE
TRACK 05 AUDIO
TITLE "Thread For Fred I"
PERFORMER "The Vinny Golia Large Ensemble"
INDEX 01 00:00:00
FILE "06 - Thread For Fred II.wav" WAVE
TRACK 06 AUDIO
TITLE "Thread For Fred II"
PERFORMER "The Vinny Golia Large Ensemble"
INDEX 01 00:00:00
FILE "07 - Something Heard.wav" WAVE
TRACK 07 AUDIO
TITLE "Something Heard"
PERFORMER "The Vinny Golia Large Ensemble"
INDEX 01 00:00:00
 
Лог проверки качества
d:\>d:\aucdtect -d/-m0 d:\zzz\*.wav
auCDtect: CD records authenticity detector, version 0.8.2
Copyright (c) 2004 Oleg Berngardt. All rights reserved.
Copyright (c) 2004 Alexander Djourik. All rights reserved.
------------------------------------------------------------
Processing file: [01. Escalanties.wav]
------------------------------------------------------------
This track looks like CDDA with probability 100%
------------------------------------------------------------
Processing file: [01. Transition - Give Me The Pearl.wav]
------------------------------------------------------------
This track looks like CDDA with probability 100%
------------------------------------------------------------
Processing file: [02. Bot.wav]
------------------------------------------------------------
This track looks like CDDA with probability 100%
------------------------------------------------------------
Processing file: [02. Transition.wav]
------------------------------------------------------------
This track looks like CDDA with probability 100%
------------------------------------------------------------
Processing file: [03. Critical Mystery.wav]
------------------------------------------------------------
This track looks like CDDA with probability 100%
------------------------------------------------------------
Processing file: [03. Transition - Alone In A World Of His Own Creation.wav]
------------------------------------------------------------
This track looks like CDDA with probability 99%
------------------------------------------------------------
Processing file: [04. Alone In A World Of His Own Creation - Transition.wav]
------------------------------------------------------------
This track looks like CDDA with probability 100%
------------------------------------------------------------
Processing file: [04. Robert's North Of Watford Rule.wav]
------------------------------------------------------------
This track looks like CDDA with probability 100%
------------------------------------------------------------
Processing file: [05. Thread For Fred I.wav]
------------------------------------------------------------
This track looks like CDDA with probability 100%
------------------------------------------------------------
Processing file: [05. Transition.wav]
------------------------------------------------------------
This track looks like CDDA with probability 100%
------------------------------------------------------------
Processing file: [06. GCG - Carnivore.wav]
------------------------------------------------------------
This track looks like CDDA with probability 100%
------------------------------------------------------------
Processing file: [06. Thread For Fred II.wav]
------------------------------------------------------------
This track looks like CDDA with probability 99%
------------------------------------------------------------
Processing file: [07. Something Heard.wav]
------------------------------------------------------------
This track looks like CDDA with probability 100%
------------------------------------------------------------
Final Conclusion:
------------------------------------------------------------
These tracks looks like CDDA with probability 100%
Доп. информация:
 
Album Info
Recorded at Warner Pacific College, Portland Oregon, February 13, 1996 (CD1), LACMA Bing Theatre Los Angeles California, January 31, 2000 (CD2)
Recorded & mastered by Wayne Peet
All photos by Steve Gunther & Scott Groller
This set of 2 CDs and 2 DVDs is an overview of 4 concerts selected from 1996 to 2006. The Portland concert (1996) was the Large Ensemble's last concert on a tour of the west coast of the United States. The second set was released in its entirety as Portland 1996 NWCD0180. The first set is too long to be released completely so a portion of the composition GCG and the percussion duets was edited for time constraints. The Bing Concert at the Los Angeles County Museum of Art (2000) was the second day of a series of concerts in Ventura and Los Angeles California, the recording is of the first set. Over the span of 10 years (1996-2006) the band expanded and became a chamber orchestra. (This large chamber ensemble is closer to my original conception of the group, which was formed in March of 1982.) At the REDCAT concerts (2006), the idea of the Large Ensemble as a chamber orchestra is in full bloom, with our largest contingent of strings, woodwind, and brass sections. The REDCAT concert series was a two day event, with a unique second day which featured Master Drummer Alfred Lapzedo and an African drum ensemble that joined the Large Ensemble for the second set. The DVDs are captures of the REDCAT concerts and were edited by the film maker Anal Shan using one stationary and one hand held camera which were subsequently blended together for the footage. - Vinny Golia, Los Angeles, 2012
 
Состав
Woodwinds: Bill Plake, Steve Adams, Steve Fowler, Kim Richmond, Vinny Golia, Alan Lecusha (CD2), Paul Sherman (CD2), Eric Barber (CD2)
Bassoon: Charles Fernandez (CD1), Sara Schoenbeck (CD2), Tara Speiser (CD2)
Trumpet/Flugelhorn/Piccolo Trumpet: John Fumo, Rob Blakeslee (CD1), Sal Cracchiolo (CD1), Glen Whitehead (CD2), Jeff Kaiser (CD2), Ed Harkins (CD2)
Trombone: George McMullen, Mike Vlatkovich, Scott Ray (CD2), Bruce Fowler (CD2)
Bass Trombone: Robbie Hioki (CD1), Danny Hemwall (CD2)
Tuba: William Roper
Spoken Word: William Roper (CD2)
Piano/Keys: Wayne Peet
Mallets: David Johnson
Percussion: Brad Dutz
Violins: Harry Scorzo, Jeff Gauthier
Cello: Peggy Lee (CD1), Guenivere Meashem (CD2), Colin Pierson (CD2), Jonathan Golove (CD2)
Bass: Ken Filiano, Joel Hamilton (CD1), Joe McNalley (CD2)
Drums: Alex Cline
Conductor: Stephanie Henry, Vinny Golia
Any questions -> support@pro-jazz.com. По всем вопросам пишите -> support@pro-jazz.com
22:33
141
Нет комментариев. Ваш будет первым!