Поиск

[Avant-Garde Jazz|Spiritual Jazz] [CD] Matana Roberts - Coin Coin Chapter One: Gens de couleur libres [2011 | FLAC [tracks] | lossless

[Avant-Garde Jazz|Spiritual Jazz] [CD] Matana Roberts - Coin Coin Chapter One: Gens de couleur libres [2011 | FLAC [tracks] | lossless
Треклист:
Matana Roberts - COIN COIN Chapter One: Gens de couleur libres

Жанр: Avant-Garde Jazz|Spiritual Jazz
Носитель: CD
Страна-производитель диска: Canada
Год издания: 2011
Издатель [лейбл]: Constellation
Страна исполнителя: USA
Аудиокодек: FLAC [*.flac]
Тип рипа: tracks
Битрейт аудио: lossless
Продолжительность: 01:01:13
Источник [релизер]: englarus
Наличие сканов в содержимом раздачи: нет

Треклист:
01. Rise [07:27]
02. Pov Piti [07:40]
03. Song for Eulalie [08:26]
04. Kersaia [07:33]
05. Libation for Mr. Brown: Bid Em In... [09:47]
06. Lulla/Bye [05:53]
07. I Am [10:05]
08. How Much Would You Cost? [04:18]
 
Лог создания рипа
X Lossless Decoder version 20110515 (133.1)
XLD extraction logfile from 2011-05-19 12:29:23 +0200
Matana Roberts / Coin Coin Chapter One: Gens De Couleur Libres
Used drive : MATSHITA DVD-R UJ-898 (revision HA07)
Ripper mode : CDParanoia III 10.2
Disable audio cache : OK for the drive with a cache less than 2750KiB
Make use of C2 pointers : NO
Read offset correction : 102
Max retry count : 100
Gap status : Analyzed, Appended
TOC of the extracted CD
Track | Start | Length | Start sector | End sector
---------------------------------------------------------
1 | 00:00:00 | 07:27:17 | 0 | 33541
2 | 07:27:17 | 07:40:55 | 33542 | 68096
3 | 15:07:72 | 08:26:09 | 68097 | 106055
4 | 23:34:06 | 07:33:02 | 106056 | 140032
5 | 31:07:08 | 09:47:73 | 140033 | 184130
6 | 40:55:06 | 05:53:72 | 184131 | 210677
7 | 46:49:03 | 10:05:24 | 210678 | 256076
8 | 56:54:27 | 04:18:63 | 256077 | 275489
AccurateRip Summary
Disc not found in AccurateRip DB.
All Tracks
Album gain : -6.92 dB
Peak : 0.988342
Statistics
Read error : 0
Skipped (treated as error) : 0
Edge jitter error (maybe fixed) : 0
Atom jitter error (maybe fixed) : 0
Drift error (maybe fixed) : 0
Dropped bytes error (maybe fixed) : 0
Duplicated bytes error (maybe fixed) : 0
Track 01
Filename : /Volumes/musique/Matana Roberts - Coin Coin Chapter One: Gens De Couleur Libres (2011) [FLAC]/01 Rise.flac
Pre-gap length : 00:02:00
Track gain : -7.16 dB
Peak : 0.988312
CRC32 hash (test run) : A4F32CC6
CRC32 hash : A4F32CC6
CRC32 hash (skip zero) : AFFE8963
AccurateRip signature : 1DA80985
->Track not present in AccurateRip database.
Statistics
Read error : 0
Skipped (treated as error) : 0
Edge jitter error (maybe fixed) : 0
Atom jitter error (maybe fixed) : 0
Drift error (maybe fixed) : 0
Dropped bytes error (maybe fixed) : 0
Duplicated bytes error (maybe fixed) : 0
Inconsistency in error sectors : 0
Track 02
Filename : /Volumes/musique/Matana Roberts - Coin Coin Chapter One: Gens De Couleur Libres (2011) [FLAC]/02 Pov Piti.flac
Track gain : -6.84 dB
Peak : 0.988312
CRC32 hash (test run) : 1561A5E1
CRC32 hash : 1561A5E1
CRC32 hash (skip zero) : E4C8DEBB
AccurateRip signature : 772C79F9
->Track not present in AccurateRip database.
Statistics
Read error : 0
Skipped (treated as error) : 0
Edge jitter error (maybe fixed) : 0
Atom jitter error (maybe fixed) : 0
Drift error (maybe fixed) : 0
Dropped bytes error (maybe fixed) : 0
Duplicated bytes error (maybe fixed) : 0
Inconsistency in error sectors : 0
Track 03
Filename : /Volumes/musique/Matana Roberts - Coin Coin Chapter One: Gens De Couleur Libres (2011) [FLAC]/03 Song For Eulalie.flac
Track gain : -5.72 dB
Peak : 0.988312
CRC32 hash (test run) : 3E7B8588
CRC32 hash : 3E7B8588
CRC32 hash (skip zero) : D8FF730F
AccurateRip signature : 7DD92682
->Track not present in AccurateRip database.
Statistics
Read error : 0
Skipped (treated as error) : 0
Edge jitter error (maybe fixed) : 0
Atom jitter error (maybe fixed) : 0
Drift error (maybe fixed) : 0
Dropped bytes error (maybe fixed) : 0
Duplicated bytes error (maybe fixed) : 0
Inconsistency in error sectors : 0
Track 04
Filename : /Volumes/musique/Matana Roberts - Coin Coin Chapter One: Gens De Couleur Libres (2011) [FLAC]/04 Kersaia.flac
Track gain : -6.68 dB
Peak : 0.988281
CRC32 hash (test run) : 7B2DE69C
CRC32 hash : 7B2DE69C
CRC32 hash (skip zero) : 290C6826
AccurateRip signature : 1F48064C
->Track not present in AccurateRip database.
Statistics
Read error : 0
Skipped (treated as error) : 0
Edge jitter error (maybe fixed) : 0
Atom jitter error (maybe fixed) : 0
Drift error (maybe fixed) : 0
Dropped bytes error (maybe fixed) : 0
Duplicated bytes error (maybe fixed) : 0
Inconsistency in error sectors : 0
Track 05
Filename : /Volumes/musique/Matana Roberts - Coin Coin Chapter One: Gens De Couleur Libres (2011) [FLAC]/05 Libation For Mr. Brown: Bid Em In....flac
Track gain : -6.73 dB
Peak : 0.988312
CRC32 hash (test run) : EEADB9EB
CRC32 hash : EEADB9EB
CRC32 hash (skip zero) : CFA6B9B0
AccurateRip signature : 9D6EE10C
->Track not present in AccurateRip database.
Statistics
Read error : 0
Skipped (treated as error) : 0
Edge jitter error (maybe fixed) : 0
Atom jitter error (maybe fixed) : 0
Drift error (maybe fixed) : 0
Dropped bytes error (maybe fixed) : 0
Duplicated bytes error (maybe fixed) : 0
Inconsistency in error sectors : 0
Track 06
Filename : /Volumes/musique/Matana Roberts - Coin Coin Chapter One: Gens De Couleur Libres (2011) [FLAC]/06 Lulla/Bye.flac
Track gain : -5.23 dB
Peak : 0.920837
CRC32 hash (test run) : 74865D68
CRC32 hash : 74865D68
CRC32 hash (skip zero) : FE807BCD
AccurateRip signature : E84D46AD
->Track not present in AccurateRip database.
Statistics
Read error : 0
Skipped (treated as error) : 0
Edge jitter error (maybe fixed) : 0
Atom jitter error (maybe fixed) : 0
Drift error (maybe fixed) : 0
Dropped bytes error (maybe fixed) : 0
Duplicated bytes error (maybe fixed) : 0
Inconsistency in error sectors : 0
Track 07
Filename : /Volumes/musique/Matana Roberts - Coin Coin Chapter One: Gens De Couleur Libres (2011) [FLAC]/07 I Am.flac
Track gain : -8.69 dB
Peak : 0.988342
CRC32 hash (test run) : D2C0217F
CRC32 hash : D2C0217F
CRC32 hash (skip zero) : 1192B874
AccurateRip signature : 0587D915
->Track not present in AccurateRip database.
Statistics
Read error : 0
Skipped (treated as error) : 0
Edge jitter error (maybe fixed) : 0
Atom jitter error (maybe fixed) : 0
Drift error (maybe fixed) : 0
Dropped bytes error (maybe fixed) : 0
Duplicated bytes error (maybe fixed) : 0
Inconsistency in error sectors : 0
Track 08
Filename : /Volumes/musique/Matana Roberts - Coin Coin Chapter One: Gens De Couleur Libres (2011) [FLAC]/08 How Much Would You Cost?.flac
Track gain : 0.83 dB
Peak : 0.964020
CRC32 hash (test run) : D68CBD50
CRC32 hash : D68CBD50
CRC32 hash (skip zero) : 57A5721F
AccurateRip signature : AFDDB305
->Track not present in AccurateRip database.
Statistics
Read error : 0
Skipped (treated as error) : 0
Edge jitter error (maybe fixed) : 0
Atom jitter error (maybe fixed) : 0
Drift error (maybe fixed) : 0
Dropped bytes error (maybe fixed) : 0
Duplicated bytes error (maybe fixed) : 0
Inconsistency in error sectors : 0
No errors occurred
End of status report

По всем вопросам пишите личное сообщение пользователю M0p94ok.
19:38
196
Нет комментариев. Ваш будет первым!