Вы используете незарегистрированную версию компонента "Вкладки"!

Поиск

(free jazz) [cd] Joe Maneri & Masashi Harada - Pinerskol (2009), FLAC (tracks+.cue), lossless

(free jazz) [cd] Joe Maneri & Masashi Harada - Pinerskol (2009), FLAC (tracks+.cue), lossless
Треклист:
(free jazz) [cd] Joe Maneri & Masashi Harada - Pinerskol (2009), FLAC (tracks+.cue), lossless


Joe Maneri & Masashi Harada - Pinerskol (2009)

Жанр: free jazz
Год выпуска: 2009
Издатель (лейбл):Leo Records ‎/ CD LR 553
Формат: FLAC (tracks+.cue)
Битрейт аудио: lossless
Продолжительность 01:09:21
Источник: what.cd
Piano, Flute, Voice, Design – Masashi Harada
Tenor Saxophone, Alto Saxophone, Clarinet, Voice – Joe Maneri

tracks

Tracklist:
1 Threads Melted (3:48)
2 Point Contact (5:19)
3 Pinerskol(4:41)
4 Sand And Play (2:48)
5 Bloskafontune (5:31)
6 Tulfe (7:54)
7 Taking A Plange (6:13)
8 Tape Stone (4:27)
9 Phoenix Rising (2:47)
10 Krashnayapicole (The Diva) (11:37)
11 Going Through A Tube (7:29)
12 Fire Track, Barbie Doll (6:47)


 
.log
Exact Audio Copy V1.0 beta 3 from 29. August 2011
EAC extraction logfile from 5. May 2014, 19:13
Joe Maneri / Masashi Harada / Pinerskol
Used drive : HL-DT-STDVDRAM SP60NB50 Adapter: 0 ID: 0
Read mode : Secure
Utilize accurate stream : Yes
Defeat audio cache : Yes
Make use of C2 pointers : No
Read offset correction : 6
Overread into Lead-In and Lead-Out : No
Fill up missing offset samples with silence : Yes
Delete leading and trailing silent blocks : No
Null samples used in CRC calculations : Yes
Used interface : Native Win32 interface for Win NT & 2000
Gap handling : Appended to previous track
Used output format : User Defined Encoder
Selected bitrate : 1024 kBit/s
Quality : High
Add ID3 tag : No
Command line compressor : C:\Program Files (x86)\FLAC\flac.exe
Additional command line options : -8 -V -T "ARTIST=%artist%" -T "TITLE=%title%" -T "ALBUM=%albumtitle%" -T "DATE=%year%" -T "TRACKNUMBER=%tracknr%" -T "GENRE=%genre%" -T "PERFORMER=%albuminterpret%" -T "COMPOSER=%composer%" %haslyrics%--tag-from-file=LYRICS="%lyricsfile%"%haslyrics% -T "ALBUMARTIST=%albumartist%" -T "DISCNUMBER=%cdnumber%" -T "TOTALDISCS=%totalcds%" -T "TOTALTRACKS=%numtracks%" -T "COMMENT=%comment%" %source% -o %dest%
TOC of the extracted CD
Track | Start | Length | Start sector | End sector
---------------------------------------------------------
1 | 0:00.00 | 3:48.23 | 0 | 17122
2 | 3:48.23 | 5:19.56 | 17123 | 41103
3 | 9:08.04 | 4:41.15 | 41104 | 62193
4 | 13:49.19 | 2:48.27 | 62194 | 74820
5 | 16:37.46 | 5:31.11 | 74821 | 99656
6 | 22:08.57 | 7:54.72 | 99657 | 135278
7 | 30:03.54 | 6:13.33 | 135279 | 163286
8 | 36:17.12 | 4:27.65 | 163287 | 183376
9 | 40:45.02 | 2:47.03 | 183377 | 195904
10 | 43:32.05 | 11:37.52 | 195905 | 248231
11 | 55:09.57 | 7:29.29 | 248232 | 281935
12 | 62:39.11 | 6:47.62 | 281936 | 312522
Track 1
Filename C:\EAC Rips\Joe Maneri & Masashi Harada - Pinerskol (2009) [FLAC]\01 Threads Melted.wav
Pre-gap length 0:00:02.00
Peak level 80.9 %
Extraction speed 1.1 X
Track quality 100.0 %
Test CRC 95A4E22A
Copy CRC 95A4E22A
Track not present in AccurateRip database
Copy OK
Track 2
Filename C:\EAC Rips\Joe Maneri & Masashi Harada - Pinerskol (2009) [FLAC]\02 Point Contact.wav
Peak level 83.1 %
Extraction speed 1.3 X
Track quality 100.0 %
Test CRC ED9CB692
Copy CRC ED9CB692
Track not present in AccurateRip database
Copy OK
Track 3
Filename C:\EAC Rips\Joe Maneri & Masashi Harada - Pinerskol (2009) [FLAC]\03 Pinerskol.wav
Peak level 96.4 %
Extraction speed 1.3 X
Track quality 99.9 %
Test CRC BB2C49B4
Copy CRC BB2C49B4
Track not present in AccurateRip database
Copy OK
Track 4
Filename C:\EAC Rips\Joe Maneri & Masashi Harada - Pinerskol (2009) [FLAC]\04 Sand and Play.wav
Peak level 73.3 %
Extraction speed 1.4 X
Track quality 100.0 %
Test CRC 4CE9E82E
Copy CRC 4CE9E82E
Track not present in AccurateRip database
Copy OK
Track 5
Filename C:\EAC Rips\Joe Maneri & Masashi Harada - Pinerskol (2009) [FLAC]\05 Bloskafontune.wav
Peak level 84.3 %
Extraction speed 1.6 X
Track quality 100.0 %
Test CRC 3CFD92D9
Copy CRC 3CFD92D9
Track not present in AccurateRip database
Copy OK
Track 6
Filename C:\EAC Rips\Joe Maneri & Masashi Harada - Pinerskol (2009) [FLAC]\06 Tulfe.wav
Peak level 94.8 %
Extraction speed 1.8 X
Track quality 100.0 %
Test CRC AEDE94BC
Copy CRC AEDE94BC
Track not present in AccurateRip database
Copy OK
Track 7
Filename C:\EAC Rips\Joe Maneri & Masashi Harada - Pinerskol (2009) [FLAC]\07 Taking a Plange.wav
Peak level 96.7 %
Extraction speed 1.9 X
Track quality 100.0 %
Test CRC 4FE343F9
Copy CRC 4FE343F9
Track not present in AccurateRip database
Copy OK
Track 8
Filename C:\EAC Rips\Joe Maneri & Masashi Harada - Pinerskol (2009) [FLAC]\08 Tape Stone.wav
Peak level 95.8 %
Extraction speed 1.9 X
Track quality 100.0 %
Test CRC E348DDB3
Copy CRC E348DDB3
Track not present in AccurateRip database
Copy OK
Track 9
Filename C:\EAC Rips\Joe Maneri & Masashi Harada - Pinerskol (2009) [FLAC]\09 Phoenix Rising.wav
Peak level 72.5 %
Extraction speed 1.9 X
Track quality 100.0 %
Test CRC 302B9F79
Copy CRC 302B9F79
Track not present in AccurateRip database
Copy OK
Track 10
Filename C:\EAC Rips\Joe Maneri & Masashi Harada - Pinerskol (2009) [FLAC]\10 Krashnayapicole (The Diva).wav
Peak level 95.9 %
Extraction speed 2.3 X
Track quality 100.0 %
Test CRC 2CDD70A4
Copy CRC 2CDD70A4
Track not present in AccurateRip database
Copy OK
Track 11
Filename C:\EAC Rips\Joe Maneri & Masashi Harada - Pinerskol (2009) [FLAC]\11 Going Through a Tube.wav
Peak level 95.7 %
Extraction speed 2.4 X
Track quality 100.0 %
Test CRC D52A1686
Copy CRC D52A1686
Track not present in AccurateRip database
Copy OK
Track 12
Filename C:\EAC Rips\Joe Maneri & Masashi Harada - Pinerskol (2009) [FLAC]\12 Fire Track, Barbie Doll.wav
Peak level 96.9 %
Extraction speed 2.5 X
Track quality 100.0 %
Test CRC 1BAD196C
Copy CRC 1BAD196C
Track not present in AccurateRip database
Copy OK
None of the tracks are present in the AccurateRip database
No errors occurred
End of status report
---- CUETools DB Plugin V2.1.3
[CTDB TOCID: 7IHBps8pUzT1DIz90uJOD9mvRjk-] disk not present in database, Submit result: 7IHBps8pUzT1DIz90uJOD9mvRjk- has been uploaded
==== Log checksum 27D71B6CD89235A7BB214451EC95D14B1BF353021A19ED1A2F4EC48CA10E0322 ====
 
.cue
REM GENRE "Free Improvisation"
REM DATE 2009
REM DISCID 9710460C
REM COMMENT "ExactAudioCopy v1.0b3"
PERFORMER "Joe Maneri / Masashi Harada"
TITLE "Pinerskol"
FILE "01 Threads Melted.wav" WAVE
TRACK 01 AUDIO
TITLE "Threads Melted"
PERFORMER "Joe Maneri / Masashi Harada"
INDEX 01 00:00:00
FILE "02 Point Contact.wav" WAVE
TRACK 02 AUDIO
TITLE "Point Contact"
PERFORMER "Joe Maneri / Masashi Harada"
INDEX 01 00:00:00
FILE "03 Pinerskol.wav" WAVE
TRACK 03 AUDIO
TITLE "Pinerskol"
PERFORMER "Joe Maneri / Masashi Harada"
INDEX 01 00:00:00
FILE "04 Sand and Play.wav" WAVE
TRACK 04 AUDIO
TITLE "Sand and Play"
PERFORMER "Joe Maneri / Masashi Harada"
INDEX 01 00:00:00
FILE "05 Bloskafontune.wav" WAVE
TRACK 05 AUDIO
TITLE "Bloskafontune"
PERFORMER "Joe Maneri / Masashi Harada"
INDEX 01 00:00:00
FILE "06 Tulfe.wav" WAVE
TRACK 06 AUDIO
TITLE "Tulfe"
PERFORMER "Joe Maneri / Masashi Harada"
INDEX 01 00:00:00
FILE "07 Taking a Plange.wav" WAVE
TRACK 07 AUDIO
TITLE "Taking a Plange"
PERFORMER "Joe Maneri / Masashi Harada"
INDEX 01 00:00:00
FILE "08 Tape Stone.wav" WAVE
TRACK 08 AUDIO
TITLE "Tape Stone"
PERFORMER "Joe Maneri / Masashi Harada"
INDEX 01 00:00:00
FILE "09 Phoenix Rising.wav" WAVE
TRACK 09 AUDIO
TITLE "Phoenix Rising"
PERFORMER "Joe Maneri / Masashi Harada"
INDEX 01 00:00:00
FILE "10 Krashnayapicole (The Diva).wav" WAVE
TRACK 10 AUDIO
TITLE "Krashnayapicole (The Diva)"
PERFORMER "Joe Maneri / Masashi Harada"
INDEX 01 00:00:00
FILE "11 Going Through a Tube.wav" WAVE
TRACK 11 AUDIO
TITLE "Going Through a Tube"
PERFORMER "Joe Maneri / Masashi Harada"
INDEX 01 00:00:00
FILE "12 Fire Track, Barbie Doll.wav" WAVE
TRACK 12 AUDIO
TITLE "Fire Track, Barbie Doll"
PERFORMER "Joe Maneri / Masashi Harada"
INDEX 01 00:00:00
https://www.discogs.com/Joe-Maneri-Masashi-Harada-Pinerskol/release/3298956
другие релизы
По всем вопросам пишите личное сообщение пользователю M0p94ok.
19:39
216
Нет комментариев. Ваш будет первым!