Поиск

(avant-garde jazz, rio, fusion) Les 4 Guitaristes de l'Apocalypso-Bar - World Tour 1998 - 1995, FLAC (tracks+.cue), lossless

Треклист:
Les 4 Guitaristes de l'Apocalypso-Bar - World Tour 1998
Жанр: avant-garde jazz, rio, fusion
Год выпуска диска: 1995
Производитель диска: ReR Records
Аудио кодек: FLAC
Тип рипа: tracks+.cue
Битрейт аудио: lossless
Продолжительность: 74:15
Треклист:
1.Ton Corps Dans Ma Memoire de Jaguar-'Mer-Morte' (3:37)
2.Les Tetes Vont Tomber (3:51)
3.Doux Blocus (3:15)
4.La Chute de la Maison Usher (2:28)
5.Pt. 1-2 (2:58)
6.Oh! Je Tangue Tant a T'Attendre (4:57)
7.Des Murs, des Murs, et Derriere... La Lumiere (8:11)
8.La Chute de la Maison Usher, Pt. 3-4 (6:36)
9.Neige Sale (4:18)
10.Apocalypso (4:23)
11.Intermission (:29)
12.Scandinavian Pedestrian (3:08)
13.Danse de Fin de Siecle (3:39)
14.Derniere Cigare Avant New York (3:39)
15.Micro Parallel Angostura (3:11)
16.Le Bloc Démoli (4:17)
17.Les Quebericains (5:26)
18.L' Arme a l'Ame (5:43)
Доп. информация: André Duchesne (Guitar (Electric)),
Chris Cutler (Drums),
Rémi Leclerc (Drums),
Ferdinand Richard (6-String Bass),
René Lussier (Guitar (Electric)),(6-String Bass),
Roger Boudreault (Guitar (Electric)), (Guitar (Classical)),
Claude Fradette (Guitar (Electric)),
Jean-Pierre Bouchard (Guitar (Electric))
 
Лог Audiockecker
AUDIOCHECKER v2.0 beta (build 457) - by Dester - opdester@freemail.hu
~~~~~~~~~~~~~~~~~~~~~~~~~~~~~~~~~~
Started at: aoi?iee, 31. 08. 2010. - 11:02.40
18 files found
01 -===- F:\Done\Les 4 Guitaristes de l'Apocalypso-Bar - World Tour 1998 - TQMP\flac\01 - Ton Corps Dans Ma Memoire De Jaguar-'Mer-Morte'.flac
Extracted successfully
Conclusion: this track is MPEG with probability 95%
Tempfile successfully deleted.
02 -===- F:\Done\Les 4 Guitaristes de l'Apocalypso-Bar - World Tour 1998 - TQMP\flac\02 - Les Tetes Vont Tomber.flac
Extracted successfully
Conclusion: this track is CDDA with probability 100%
Tempfile successfully deleted.
03 -===- F:\Done\Les 4 Guitaristes de l'Apocalypso-Bar - World Tour 1998 - TQMP\flac\03 - Doux Blocus.flac
Extracted successfully
Conclusion: this track is MPEG with probability 95%
Tempfile successfully deleted.
04 -===- F:\Done\Les 4 Guitaristes de l'Apocalypso-Bar - World Tour 1998 - TQMP\flac\04 - La Chute de la Maison Usher.flac
Extracted successfully
Conclusion: this track is CDDA with probability 99%
Tempfile successfully deleted.
05 -===- F:\Done\Les 4 Guitaristes de l'Apocalypso-Bar - World Tour 1998 - TQMP\flac\05 - Parts I & II.flac
Extracted successfully
Conclusion: this track is MPEG with probability 95%
Tempfile successfully deleted.
06 -===- F:\Done\Les 4 Guitaristes de l'Apocalypso-Bar - World Tour 1998 - TQMP\flac\06 - Oh! Je Tangue Tant A T'Attendre.flac
Extracted successfully
Conclusion: this track is CDDA with probability 100%
Tempfile successfully deleted.
07 -===- F:\Done\Les 4 Guitaristes de l'Apocalypso-Bar - World Tour 1998 - TQMP\flac\07 - Des Murs, Des Murs, Et Derriere...La Lumiere.flac
Extracted successfully
Conclusion: this track is MPEG with probability 95%
Tempfile successfully deleted.
08 -===- F:\Done\Les 4 Guitaristes de l'Apocalypso-Bar - World Tour 1998 - TQMP\flac\08 - La Chute De La Maison Usher, Parts III And IV.flac
Extracted successfully
Conclusion: this track is CDDA with probability 100%
Tempfile successfully deleted.
09 -===- F:\Done\Les 4 Guitaristes de l'Apocalypso-Bar - World Tour 1998 - TQMP\flac\09 - Neige sale.flac
Extracted successfully
Conclusion: this track is MPEG with probability 95%
Tempfile successfully deleted.
10 -===- F:\Done\Les 4 Guitaristes de l'Apocalypso-Bar - World Tour 1998 - TQMP\flac\10 - Apocalypso.flac
Extracted successfully
Conclusion: this track is CDDA with probability 100%
Tempfile successfully deleted.
11 -===- F:\Done\Les 4 Guitaristes de l'Apocalypso-Bar - World Tour 1998 - TQMP\flac\11 - Intermission.flac
Extracted successfully
Conclusion: this track is CDDA with probability 100%
Tempfile successfully deleted.
12 -===- F:\Done\Les 4 Guitaristes de l'Apocalypso-Bar - World Tour 1998 - TQMP\flac\12 - Scandinavian Pedestrian.flac
Extracted successfully
Conclusion: this track is CDDA with probability 100%
Tempfile successfully deleted.
13 -===- F:\Done\Les 4 Guitaristes de l'Apocalypso-Bar - World Tour 1998 - TQMP\flac\13 - Danse De Fin De Siecle.flac
Extracted successfully
Conclusion: this track is CDDA with probability 100%
Tempfile successfully deleted.
14 -===- F:\Done\Les 4 Guitaristes de l'Apocalypso-Bar - World Tour 1998 - TQMP\flac\14 - Derniere Cigare Avant New York.flac
Extracted successfully
Conclusion: this track is CDDA with probability 100%
Tempfile successfully deleted.
15 -===- F:\Done\Les 4 Guitaristes de l'Apocalypso-Bar - World Tour 1998 - TQMP\flac\15 - Micro Parallel Angostura.flac
Extracted successfully
Conclusion: this track is CDDA with probability 100%
Tempfile successfully deleted.
16 -===- F:\Done\Les 4 Guitaristes de l'Apocalypso-Bar - World Tour 1998 - TQMP\flac\16 - Le Bloc Demoli.flac
Extracted successfully
Conclusion: this track is CDDA with probability 100%
Tempfile successfully deleted.
17 -===- F:\Done\Les 4 Guitaristes de l'Apocalypso-Bar - World Tour 1998 - TQMP\flac\17 - Les Quebericains.flac
Extracted successfully
Conclusion: this track is CDDA with probability 100%
Tempfile successfully deleted.
18 -===- F:\Done\Les 4 Guitaristes de l'Apocalypso-Bar - World Tour 1998 - TQMP\flac\18 - L'Arme A L'Ame.flac
Extracted successfully
Conclusion: this track is CDDA with probability 100%
Tempfile successfully deleted.
Finished at: aoi?iee, 31. 08. 2010. - 11:07.38 (operation time: 0:04.57)
 
CueTool generated Cue
REM COMMENT "CUETools generated dummy CUE sheet"
FILE "01 - Ton Corps Dans Ma Memoire De Jaguar-'Mer-Morte'.flac" WAVE
TRACK 01 AUDIO
INDEX 01 00:00:00
FILE "02 - Les Tetes Vont Tomber.flac" WAVE
TRACK 02 AUDIO
INDEX 01 00:00:00
FILE "03 - Doux Blocus.flac" WAVE
TRACK 03 AUDIO
INDEX 01 00:00:00
FILE "04 - La Chute de la Maison Usher.flac" WAVE
TRACK 04 AUDIO
INDEX 01 00:00:00
FILE "05 - Parts I & II.flac" WAVE
TRACK 05 AUDIO
INDEX 01 00:00:00
FILE "06 - Oh! Je Tangue Tant A T'Attendre.flac" WAVE
TRACK 06 AUDIO
INDEX 01 00:00:00
FILE "07 - Des Murs, Des Murs, Et Derriere...La Lumiere.flac" WAVE
TRACK 07 AUDIO
INDEX 01 00:00:00
FILE "08 - La Chute De La Maison Usher, Parts III And IV.flac" WAVE
TRACK 08 AUDIO
INDEX 01 00:00:00
FILE "09 - Neige sale.flac" WAVE
TRACK 09 AUDIO
INDEX 01 00:00:00
FILE "10 - Apocalypso.flac" WAVE
TRACK 10 AUDIO
INDEX 01 00:00:00
FILE "11 - Intermission.flac" WAVE
TRACK 11 AUDIO
INDEX 01 00:00:00
FILE "12 - Scandinavian Pedestrian.flac" WAVE
TRACK 12 AUDIO
INDEX 01 00:00:00
FILE "13 - Danse De Fin De Siecle.flac" WAVE
TRACK 13 AUDIO
INDEX 01 00:00:00
FILE "14 - Derniere Cigare Avant New York.flac" WAVE
TRACK 14 AUDIO
INDEX 01 00:00:00
FILE "15 - Micro Parallel Angostura.flac" WAVE
TRACK 15 AUDIO
INDEX 01 00:00:00
FILE "16 - Le Bloc Demoli.flac" WAVE
TRACK 16 AUDIO
INDEX 01 00:00:00
FILE "17 - Les Quebericains.flac" WAVE
TRACK 17 AUDIO
INDEX 01 00:00:00
FILE "18 - L'Arme A L'Ame.flac" WAVE
TRACK 18 AUDIO
INDEX 01 00:00:00
Источник:сеть
Внимание:Куй сгенерирован мной в CueTool 2.04
Отсебятина: за время лежания этого диска на открытых трекерах его не успел скачать или ленивый или глухой :-),
оформляя релиз на джазовой ветке руководствовался тем, что именно тут лежит вся продукция товарища Фрэда Фрита и Ко
а так же тем, что рецензию на диск читал в "Джаз-лофте", хотя это не джаз.
Составчик звездный - киты "Амбьянс Магнетик", вещи в основном Дюшена, по одной Люсье, Бодро, Бушара и по-моему 2 кавера Ларса Холлмера
Слушаем ,Угораем
Обложки внутри
По всем вопросам пишите личное сообщение пользователю M0p94ok.
02:58
134
Нет комментариев. Ваш будет первым!