Вы используете незарегистрированную версию компонента "Вкладки"!

Поиск

(norway, free jazz, free improvisation, rune grammofon) Circulasione Totale Orchestra - Bandwidth (3 cd) - 2009, FLAC (tracks+.cue), lossless

Треклист:
Circulasione Totale Orchestra - Bandwidth
Жанр: Free Jazz, Free Improvisation
Год выпуска диска: 2009
Производитель диска: Norway / Rune Grammofon {2089}
Аудио кодек: FLAC
Тип рипа: tracks+.cue
Битрейт аудио: lossless
Продолжительность: 02:51:37
Треклист:
Disc 1: Yellow Bass & Silver Cornet II
1. Yellow Bass & Silver Cornet II, Part 1 (13:33)
2. Yellow Bass & Silver Cornet II, Part 2 (13:10)
3. Yellow Bass & Silver Cornet II, Part 3 (9:22)
4. Yellow Bass & Silver Cornet II, Part 4 (9:26)
Disc 2: Yellow Bass & Silver Cornet III
1. Yellow Bass & Silver Cornet III, Part 1 (16:19)
2. Yellow Bass & Silver Cornet III, Part 2 (16:55)
3. Yellow Bass & Silver Cornet III, Part 3 (14:03)
4. Yellow Bass & Silver Cornet III, Part 4 (13:00)
Disc 3: Dancing in St. Johann IV
1. Dancing in St. Johann IV, Part 1 (25:07)
2. Dancing in St. Johann IV, Part 2 (18:59)
3. Dancing in St. Johann IV, Part 3 (5:00)
4. Dancing in St. Johann IV, Part 4 (16:42)
Этот проект существует с 1984 года. В состав за это время входило множество музыкантов, но пару лет назад его лидер, легендарной норвежской саксофонист и кларнетист Frode Gjerstad собрал новых музыкантов, записав один из важнейших альбомов в своей карьере. Разница в возрасте музыкантов достигает 50 лет, что лишний раз подтверждает. что музыка не обращает на это внимание. Музыканты, собравшиеся с трех разных континентов,охватывают широкий спектр музыкальных идей с их уникальным сочетанием акустики и электроники. Frode Gjerstad хотел, чтобы диски стали праздником импровизационной музыки и критики соглашаются, что ему это удалось. Музыка варьируется от вулканического саунда к спокойствию моря в штиль, где, что не менее важно для музыкантов, они знают, когда играть, а когда нет. Записи были сделаны в последние джазовых фестивалях в Molde, Moers and Zürich .
line up:
Frode Gjerstad (sax and clarinet), Louis Moholo-Moholo (drums), Morten J. Olsen (electronics and drums), Anders Hana (electric guitar), Nick Stephens (acoustic bass), Børre Mølstad (tuba), Sabir Mateen (sax and clarinet), Kevin Norton (vibraphone), Bobby Bradford (cornet) and Lasse Marhaug (electronics). Paal Nilssen-Love (drums) and Ingebrigt Håker Flaten (acoustic bass) are playing on disc one and two while Per Zanussi (electric bass) and Hamid Drake (drums) are playing on disc three.
 
reviews
With a group as sonically dense as Circulasione Totale Orchestra (CTO), a single disc can be daunting enough. With Bandwidth, the 25 year-old free-blowing group delivers nearly three hours of relentless collective interplay; three continuous pieces divided into four segments each across three CDs. It's not for the faint-at-heart; even free improv fans may find it a challenge to sit through the entire set, recorded live in Molde, Moers, and Zürich, in one sitting. But there are few groups today who can mine the outer reaches of extended improvisation as CTO can, making this an essential and, in many ways, definitive set.
Starting as a vehicle for saxophonist Frode Gjerstad's experimentation with improvisation within the roadmap of composed sketches, CTO's Norwegian line-up quickly grew to include international collaborators that the intrepid Gjerstad has met over the years. Surely Scandinavia's answer to Chicago's Ken Vandermark in his breadth and prolificacy, the two reedmen have, indeed, intersected, and both regularly enlist drummer Paal Nilssen-Love, another Norwegian heard here alongside South African expat drummer Louis Moholo-Moholo on Bandwidth's first two discs. The international contingent expands with American representation from drummer Hamid Drake on one disc, and cornetist Bobby Bradford on all three. All told, CTO runs a full 12 members, but with a touch of the revolving door policy that's been a fundamental philosophy to CTO since its inception.
CTO's music may be jagged and—on the surface, at least—unrelenting in its intensity, but a variety of trace elements run through it, providing more than just voluminous weight. Bradford waxes blues-like on "Yellow, Bass & Silver Cornet II, Part 4," for example, amidst burbling electronics and fellow American Kevin Norton's vibraphone—an instrument which, with its more delicate, ethereal timbre, might seem out of place here, but which provides yet another differentiating context-setter when it emerges in the mix. Elsewhere, at the start of "Part 3," Norton's pulse provides a starting point for the drummers to create, if only briefly, a definable rhythm. It's also a lull point for the group, where there may still be plenty going on, but with lowered dynamics and actual space to be found, as Bradford once again takes the lead with Gjerstad and fellow reedman Sabir Mateen wailing far in the background. The piece assumes a more electronic direction, with third drummer Morten Johan Olsen working in tandem with electronics wizard Lasse Marhaug and electric guitarist Anders Hana, to create jagged landscapes, bolstered by British bassist Nick Stephens' sawing arco.
With a group of three drummers, two reedmen, one cornetist, a tubaist, two bassists, vibraphone, electric guitar, and assorted electronics, the sonic, polyrhythmic, and melodic possibilities are endless. All this and more is what makes Bandwidth a captivating—albeit challenging—listen that demands as much of its audience as it does the members of Circulasione Totale Orchestra.
John Kelman
Review excerpts
Over nigh-on three hours, the Orchestra passes through myriad dynamic modes and stylistic shifts - sometimes blazing, sometimes simmering; at times explicitly jazz-based, often drawing on freer, less definable sources. On a dry, technical level, Bandwidth is superb - so microscopically precise and detailed you can almost hear spit valves glistening. Far more importantly, it´s a captivating document of a squirmy, protean and inexhaustibly fertile collective that remains constantly engrossing throughout its heroic running time.
Rock-a-Rolla (UK)
Kevin Norton´s spectral vibraphone gives the music a defining shimmer, like watching the aurora on an October night, with some summer warmth still in the ground. Bradford is present again, and pairing cornet with tuba (Børre Mølstad) instead of trombone gives the brass an imaginative tonal and timbral twist. Gjerstad and Sabir Mateen share reed duties, both of them able to make the clarinet sound like a distinct instrument and not a slack double.
The Wire (UK)
CTO's sound could be described as "Bitches Brew goes to Norway", with the raucous, percussive electronics of Lasse Marhaug, Morten Johan Olsen and guitarist Anders Hana replacing the wah-wah guitars and keyboards of the Davis group; in addition, Bobby Bradford's cornet features prominently, his Ornettey clarion interjections often signalling a change in direction. The rhythm section is an extraordinary team, pairing bassists Ingebrigt Håker Flaten and Nick Stephens and drummers Louis Moholo-Moholo and Paal Nilssen-Love; on the third disc, Nilssen-Love and Håker Flaten (off touring with Atomic) are replaced by Hamid Drake and electric bassist Per Zanussi, and the rhythms are somewhat more rigid and less free-flowing.
This collection is highly recommended. With performances of this duration each incremental listen highlights something new to the listener's experience, whether it's the clarinet interplay between Gjerstad and the remarkably simpatico Sabir Mateen or their scorching alto/tenor saxophone face-off on the second part of disc 2 leading to a free-for-all, or the way Børre Mølstad's tuba supplements Bradford and the rhythm section on the first disc's opening cut. I doubt I'll run out of enjoyable things to discover in these fine performances.
Paristransatlantic (UK)

 
logs
 
log 1
X Lossless Decoder version 20100711 (120.5)
XLD extraction logfile from 2010-08-27 11:12:52 +0200
Circulasione Totale Orchestra / Bandwidth (disc 1)
Used drive : HL-DT-ST DVDRW GSA-S10N (revision AP12)
Use cdparanoia mode : YES (CDParanoia III 10.2 engine)
Disable audio cache : OK for the drive with cache less than 2750KB
Make use of C2 pointers : NO
Read offset correction : 667
Max retry count : 100
Gap status : Analyzed, Appended
TOC of the extracted CD
Track | Start | Length | Start sector | End sector
---------------------------------------------------------
1 | 00:00:00 | 13:33:36 | 0 | 61010
2 | 13:33:36 | 13:10:20 | 61011 | 120280
3 | 26:43:56 | 09:21:49 | 120281 | 162404
4 | 36:05:30 | 09:26:16 | 162405 | 204870
All Tracks
Album gain : -6.65 dB
Peak : 0.944061
Track 01
Filename : /Unsorted MP3/00 In Progress/Circulasione Totale Orchestra - 2009 - Bandwidth (disc 1)/01 - Yellow Bass & Silver Cornet II, Part 1.flac
Pre-gap length : 00:02:00
Track gain : -6.87 dB
Peak : 0.944061
CRC32 hash (test run) : 4EC5BC1A
CRC32 hash : 4EC5BC1A
CRC32 hash (skip zero) : F28D8297
AccurateRip signature : 53F7E9DC
->Track not present in AccurateRip database.
Statistics
Read error : 0
Skipped (treated as error) : 0
Edge jitter error (maybe fixed) : 0
Atom jitter error (maybe fixed) : 0
Drift error (maybe fixed) : 0
Dropped bytes error (maybe fixed) : 0
Duplicated bytes error (maybe fixed) : 0
Inconsistency in error sectors : 0
Track 02
Filename : /Unsorted MP3/00 In Progress/Circulasione Totale Orchestra - 2009 - Bandwidth (disc 1)/02 - Yellow Bass & Silver Cornet II, Part 2.flac
Track gain : -7.32 dB
Peak : 0.944061
CRC32 hash (test run) : 8A293ACE
CRC32 hash : 8A293ACE
CRC32 hash (skip zero) : 8A2661E3
AccurateRip signature : D7C49B0F
->Track not present in AccurateRip database.
Statistics
Read error : 0
Skipped (treated as error) : 0
Edge jitter error (maybe fixed) : 0
Atom jitter error (maybe fixed) : 0
Drift error (maybe fixed) : 0
Dropped bytes error (maybe fixed) : 0
Duplicated bytes error (maybe fixed) : 0
Inconsistency in error sectors : 0
Track 03
Filename : /Unsorted MP3/00 In Progress/Circulasione Totale Orchestra - 2009 - Bandwidth (disc 1)/03 - Yellow Bass & Silver Cornet II, Part 3.flac
Track gain : -4.21 dB
Peak : 0.944061
CRC32 hash (test run) : A910E3C2
CRC32 hash : A910E3C2
CRC32 hash (skip zero) : D42C8922
AccurateRip signature : 157AD9D6
->Track not present in AccurateRip database.
Statistics
Read error : 0
Skipped (treated as error) : 0
Edge jitter error (maybe fixed) : 0
Atom jitter error (maybe fixed) : 0
Drift error (maybe fixed) : 0
Dropped bytes error (maybe fixed) : 0
Duplicated bytes error (maybe fixed) : 0
Inconsistency in error sectors : 0
Track 04
Filename : /Unsorted MP3/00 In Progress/Circulasione Totale Orchestra - 2009 - Bandwidth (disc 1)/04 - Yellow Bass & Silver Cornet II, Part 4.flac
Track gain : -5.18 dB
Peak : 0.944061
CRC32 hash (test run) : DF2B8CCE
CRC32 hash : DF2B8CCE
CRC32 hash (skip zero) : 728EBEDD
AccurateRip signature : 48D24A85
->Track not present in AccurateRip database.
Statistics
Read error : 0
Skipped (treated as error) : 0
Edge jitter error (maybe fixed) : 0
Atom jitter error (maybe fixed) : 0
Drift error (maybe fixed) : 0
Dropped bytes error (maybe fixed) : 0
Duplicated bytes error (maybe fixed) : 0
Inconsistency in error sectors : 0
No errors occurred
End of status report
 
log2
X Lossless Decoder version 20100711 (120.5)
XLD extraction logfile from 2010-08-27 12:15:06 +0200
Circulasione Totale Orchestra / Bandwidth (disc 2)
Used drive : HL-DT-ST DVDRW GSA-S10N (revision AP12)
Use cdparanoia mode : YES (CDParanoia III 10.2 engine)
Disable audio cache : OK for the drive with cache less than 2750KB
Make use of C2 pointers : NO
Read offset correction : 667
Max retry count : 100
Gap status : Analyzed, Appended
TOC of the extracted CD
Track | Start | Length | Start sector | End sector
---------------------------------------------------------
1 | 00:00:00 | 16:19:29 | 0 | 73453
2 | 16:19:29 | 16:54:72 | 73454 | 149575
3 | 33:14:26 | 14:03:29 | 149576 | 212829
4 | 47:17:55 | 13:00:15 | 212830 | 271344
All Tracks
Album gain : -6.87 dB
Peak : 0.944092
Track 01
Filename : /Unsorted MP3/00 In Progress/Circulasione Totale Orchestra - 2009 - Bandwidth (disc 2)/01 - Yellow Bass & Silver Cornet III, Part 1.flac
Pre-gap length : 00:02:00
Track gain : -5.38 dB
Peak : 0.944092
CRC32 hash (test run) : 362DD401
CRC32 hash : 362DD401
CRC32 hash (skip zero) : B520F4B3
AccurateRip signature : FDAC921A
->Track not present in AccurateRip database.
Statistics
Read error : 0
Skipped (treated as error) : 0
Edge jitter error (maybe fixed) : 0
Atom jitter error (maybe fixed) : 0
Drift error (maybe fixed) : 0
Dropped bytes error (maybe fixed) : 0
Duplicated bytes error (maybe fixed) : 0
Inconsistency in error sectors : 0
Track 02
Filename : /Unsorted MP3/00 In Progress/Circulasione Totale Orchestra - 2009 - Bandwidth (disc 2)/02 - Yellow Bass & Silver Cornet III, Part 2.flac
Track gain : -7.93 dB
Peak : 0.944092
CRC32 hash (test run) : 4ACB9206
CRC32 hash : 4ACB9206
CRC32 hash (skip zero) : 4212F626
AccurateRip signature : 84CCBF35
->Track not present in AccurateRip database.
Statistics
Read error : 0
Skipped (treated as error) : 0
Edge jitter error (maybe fixed) : 0
Atom jitter error (maybe fixed) : 0
Drift error (maybe fixed) : 0
Dropped bytes error (maybe fixed) : 0
Duplicated bytes error (maybe fixed) : 0
Inconsistency in error sectors : 0
Track 03
Filename : /Unsorted MP3/00 In Progress/Circulasione Totale Orchestra - 2009 - Bandwidth (disc 2)/03 - Yellow Bass & Silver Cornet III, Part 3.flac
Track gain : -5.99 dB
Peak : 0.944092
CRC32 hash (test run) : 292026CB
CRC32 hash : 292026CB
CRC32 hash (skip zero) : F8F80267
AccurateRip signature : 8CD1C72A
->Track not present in AccurateRip database.
Statistics
Read error : 0
Skipped (treated as error) : 0
Edge jitter error (maybe fixed) : 0
Atom jitter error (maybe fixed) : 0
Drift error (maybe fixed) : 0
Dropped bytes error (maybe fixed) : 0
Duplicated bytes error (maybe fixed) : 0
Inconsistency in error sectors : 0
Track 04
Filename : /Unsorted MP3/00 In Progress/Circulasione Totale Orchestra - 2009 - Bandwidth (disc 2)/04 - Yellow Bass & Silver Cornet III, Part 4.flac
Track gain : -6.69 dB
Peak : 0.944092
CRC32 hash (test run) : 15023677
CRC32 hash : 15023677
CRC32 hash (skip zero) : 246B3903
AccurateRip signature : 2B4A6E21
->Track not present in AccurateRip database.
Statistics
Read error : 0
Skipped (treated as error) : 0
Edge jitter error (maybe fixed) : 0
Atom jitter error (maybe fixed) : 0
Drift error (maybe fixed) : 0
Dropped bytes error (maybe fixed) : 0
Duplicated bytes error (maybe fixed) : 0
Inconsistency in error sectors : 0
No errors occurred
End of status report
 
log 3
X Lossless Decoder version 20100711 (120.5)
XLD extraction logfile from 2010-08-27 13:00:38 +0200
Circulasione Totale Orchestra / Bandwidth (disc 3)
Used drive : HL-DT-ST DVDRW GSA-S10N (revision AP12)
Use cdparanoia mode : YES (CDParanoia III 10.2 engine)
Disable audio cache : OK for the drive with cache less than 2750KB
Make use of C2 pointers : NO
Read offset correction : 667
Max retry count : 100
Gap status : Analyzed, Appended
TOC of the extracted CD
Track | Start | Length | Start sector | End sector
---------------------------------------------------------
1 | 00:00:00 | 25:06:73 | 0 | 113022
2 | 25:06:73 | 18:58:55 | 113023 | 198427
3 | 44:05:53 | 05:00:16 | 198428 | 220943
4 | 49:05:69 | 16:41:51 | 220944 | 296069
All Tracks
Album gain : -10.16 dB
Peak : 0.944061
Track 01
Filename : /Unsorted MP3/00 In Progress/Circulasione Totale Orchestra - 2009 - Bandwidth (disc 3)/01 - Dancing in St. Johann IV, Part 1.flac
Pre-gap length : 00:02:00
Track gain : -9.79 dB
Peak : 0.944061
CRC32 hash (test run) : 9D390CFC
CRC32 hash : 9D390CFC
CRC32 hash (skip zero) : 7EBCF728
AccurateRip signature : 99484581
->Track not present in AccurateRip database.
Statistics
Read error : 0
Skipped (treated as error) : 0
Edge jitter error (maybe fixed) : 0
Atom jitter error (maybe fixed) : 0
Drift error (maybe fixed) : 0
Dropped bytes error (maybe fixed) : 0
Duplicated bytes error (maybe fixed) : 0
Inconsistency in error sectors : 0
Track 02
Filename : /Unsorted MP3/00 In Progress/Circulasione Totale Orchestra - 2009 - Bandwidth (disc 3)/02 - Dancing in St. Johann IV, Part 2.flac
Track gain : -10.77 dB
Peak : 0.944061
CRC32 hash (test run) : B66390A6
CRC32 hash : B66390A6
CRC32 hash (skip zero) : B72B03E2
AccurateRip signature : 0858DCBD
->Track not present in AccurateRip database.
Statistics
Read error : 0
Skipped (treated as error) : 0
Edge jitter error (maybe fixed) : 0
Atom jitter error (maybe fixed) : 0
Drift error (maybe fixed) : 0
Dropped bytes error (maybe fixed) : 0
Duplicated bytes error (maybe fixed) : 0
Inconsistency in error sectors : 0
Track 03
Filename : /Unsorted MP3/00 In Progress/Circulasione Totale Orchestra - 2009 - Bandwidth (disc 3)/03 - Dancing in St. Johann IV, Part 3.flac
Track gain : -0.29 dB
Peak : 0.944061
CRC32 hash (test run) : 8D055F9B
CRC32 hash : 8D055F9B
CRC32 hash (skip zero) : 153ABCE4
AccurateRip signature : 3A817BEF
->Track not present in AccurateRip database.
Statistics
Read error : 0
Skipped (treated as error) : 0
Edge jitter error (maybe fixed) : 0
Atom jitter error (maybe fixed) : 0
Drift error (maybe fixed) : 0
Dropped bytes error (maybe fixed) : 0
Duplicated bytes error (maybe fixed) : 0
Inconsistency in error sectors : 0
Track 04
Filename : /Unsorted MP3/00 In Progress/Circulasione Totale Orchestra - 2009 - Bandwidth (disc 3)/04 - Dancing in St. Johann IV, Part 4.flac
Track gain : -10.12 dB
Peak : 0.944061
CRC32 hash (test run) : C9698A32
CRC32 hash : C9698A32
CRC32 hash (skip zero) : AAF9C3AF
AccurateRip signature : 2A0A479B
->Track not present in AccurateRip database.
Statistics
Read error : 0
Skipped (treated as error) : 0
Edge jitter error (maybe fixed) : 0
Atom jitter error (maybe fixed) : 0
Drift error (maybe fixed) : 0
Dropped bytes error (maybe fixed) : 0
Duplicated bytes error (maybe fixed) : 0
Inconsistency in error sectors : 0
No errors occurred
End of status report
 
cues
 
cue 1
TITLE "Bandwidth (disc 1)"
PERFORMER "Circulasione Totale Orchestra"
REM DATE "2009-11-02"
REM DISCID 2C0AAB04
FILE "01 - Yellow Bass & Silver Cornet II, Part 1.wav" WAVE
TRACK 01 AUDIO
TITLE "Yellow Bass & Silver Cornet II, Part 1"
ISRC NOFGR0989010
INDEX 01 00:00:00
FILE "02 - Yellow Bass & Silver Cornet II, Part 2.wav" WAVE
TRACK 02 AUDIO
TITLE "Yellow Bass & Silver Cornet II, Part 2"
ISRC NOFGR0989020
INDEX 01 00:00:00
FILE "03 - Yellow Bass & Silver Cornet II, Part 3.wav" WAVE
TRACK 03 AUDIO
TITLE "Yellow Bass & Silver Cornet II, Part 3"
ISRC NOFGR0989030
INDEX 01 00:00:00
FILE "04 - Yellow Bass & Silver Cornet II, Part 4.wav" WAVE
TRACK 04 AUDIO
TITLE "Yellow Bass & Silver Cornet II, Part 4"
ISRC NOFGR0989040
INDEX 01 00:00:00
 
cue 2
TITLE "Bandwidth (disc 2)"
PERFORMER "Circulasione Totale Orchestra"
REM DATE "2009-11-02"
REM DISCID 430E2104
FILE "01 - Yellow Bass & Silver Cornet III, Part 1.wav" WAVE
TRACK 01 AUDIO
TITLE "Yellow Bass & Silver Cornet III, Part 1"
ISRC NOFGR0989050
INDEX 01 00:00:00
FILE "02 - Yellow Bass & Silver Cornet III, Part 2.wav" WAVE
TRACK 02 AUDIO
TITLE "Yellow Bass & Silver Cornet III, Part 2"
ISRC NOFGR0989060
INDEX 01 00:00:00
FILE "03 - Yellow Bass & Silver Cornet III, Part 3.wav" WAVE
TRACK 03 AUDIO
TITLE "Yellow Bass & Silver Cornet III, Part 3"
ISRC NOFGR0989070
INDEX 01 00:00:00
FILE "04 - Yellow Bass & Silver Cornet III, Part 4.wav" WAVE
TRACK 04 AUDIO
TITLE "Yellow Bass & Silver Cornet III, Part 4"
ISRC NOFGR0989080
INDEX 01 00:00:00
 
cue3
TITLE "Bandwidth (disc 3)"
PERFORMER "Circulasione Totale Orchestra"
REM DATE "2009-11-02"
REM DISCID 390F6B04
FILE "01 - Dancing in St. Johann IV, Part 1.wav" WAVE
TRACK 01 AUDIO
TITLE "Dancing in St. Johann IV, Part 1"
ISRC NOFGR0989090
INDEX 01 00:00:00
FILE "02 - Dancing in St. Johann IV, Part 2.wav" WAVE
TRACK 02 AUDIO
TITLE "Dancing in St. Johann IV, Part 2"
ISRC NOFGR0989100
INDEX 01 00:00:00
FILE "03 - Dancing in St. Johann IV, Part 3.wav" WAVE
TRACK 03 AUDIO
TITLE "Dancing in St. Johann IV, Part 3"
ISRC NOFGR0989110
INDEX 01 00:00:00
FILE "04 - Dancing in St. Johann IV, Part 4.wav" WAVE
TRACK 04 AUDIO
TITLE "Dancing in St. Johann IV, Part 4"
ISRC NOFGR0989120
INDEX 01 00:00:00

Рип by zopatista
Any questions -> support@pro-jazz.com. По всем вопросам пишите -> support@pro-jazz.com
02:58
114
Нет комментариев. Ваш будет первым!