Вы используете незарегистрированную версию компонента "Вкладки"!

Поиск

(Jazz, Avant-Garde) Carlos Garnett - Fire (320043) - 1997, FLAC (tracks+.cue), lossless

Треклист:
Carlos Garnett - Fire
Жанр: Jazz, Avant-Garde
Год выпуска диска: 1997
Производитель диска: 32 Jazz \ US
Аудио кодек: FLAC
Тип рипа: tracks+.cue
Битрейт аудио: lossless
Продолжительность: 42:55
Треклист:
01 - Carlos Garnett - Chana [06:19]
02 - Carlos Garnett - Saxy [05:25]
03 - Carlos Garnett - Senor Trane [07:42]
04 - Carlos Garnett - Let Us Go (To Higher Heights) [06:17]
05 - Carlos Garnett - Memories Of Coltrane (Exerpt) [05:00]
06 - Carlos Garnett - Taurus Woman [12:14]
Собственноручный рип с оригинального диска от funky_cat!
 
Log EAC
Exact Audio Copy V0.99 prebeta 5 from 4. May 2009
EAC extraction logfile from 29. August 2010, 21:39
Fire / Carlos Garnett
Used drive : Optiarc DVD RW AD-7170A Adapter: 1 ID: 1
Read mode : Secure
Utilize accurate stream : Yes
Defeat audio cache : Yes
Make use of C2 pointers : No
Read offset correction : 48
Overread into Lead-In and Lead-Out : No
Fill up missing offset samples with silence : Yes
Delete leading and trailing silent blocks : No
Null samples used in CRC calculations : Yes
Used interface : Native Win32 interface for Win NT & 2000
Gap handling : Appended to previous track
Used output format : User Defined Encoder
Selected bitrate : 128 kBit/s
Quality : High
Add ID3 tag : No
Command line compressor : C:\Program Files\FLAC\flac.exe
Additional command line options : -5 -V -T "ARTIST=%a" -T "TITLE=%t" -T "ALBUM=%g" -T "DATE=%y" -T "TRACKNUMBER=%n" -T "GENRE=%m" -T "COMMENT=Ripped by andygrakoff aka yetiisyou" %s
TOC of the extracted CD
Track | Start | Length | Start sector | End sector
---------------------------------------------------------
1 | 0:00.00 | 6:19.37 | 0 | 28461
2 | 6:19.37 | 5:25.35 | 28462 | 52871
3 | 11:44.72 | 7:42.15 | 52872 | 87536
4 | 19:27.12 | 6:17.23 | 87537 | 115834
5 | 25:44.35 | 5:00.57 | 115835 | 138391
6 | 30:45.17 | 12:14.10 | 138392 | 193451
Track 1
Filename E:\!Rips\Carlos Garnett - Fire (320043) 1997\01 – Chana.wav
Pre-gap length 0:00:02.00
Peak level 99.6 %
Track quality 100.0 %
Test CRC F1746DC3
Copy CRC F1746DC3
Track not present in AccurateRip database
Copy OK
Track 2
Filename E:\!Rips\Carlos Garnett - Fire (320043) 1997\02 – Saxy.wav
Pre-gap length 0:00:03.06
Peak level 98.8 %
Track quality 100.0 %
Test CRC D8C18A88
Copy CRC D8C18A88
Track not present in AccurateRip database
Copy OK
Track 3
Filename E:\!Rips\Carlos Garnett - Fire (320043) 1997\03 – Senor Trane.wav
Pre-gap length 0:00:02.86
Peak level 99.4 %
Track quality 99.9 %
Test CRC 048DBFAB
Copy CRC 048DBFAB
Track not present in AccurateRip database
Copy OK
Track 4
Filename E:\!Rips\Carlos Garnett - Fire (320043) 1997\04 – Let Us Go (To Higher Heights).wav
Pre-gap length 0:00:02.73
Peak level 99.8 %
Track quality 100.0 %
Test CRC 65303793
Copy CRC 65303793
Track not present in AccurateRip database
Copy OK
Track 5
Filename E:\!Rips\Carlos Garnett - Fire (320043) 1997\05 – Memories Of Coltrane (Exerpt).wav
Pre-gap length 0:00:02.66
Peak level 97.1 %
Track quality 100.0 %
Test CRC 10AA579B
Copy CRC 10AA579B
Track not present in AccurateRip database
Copy OK
Track 6
Filename E:\!Rips\Carlos Garnett - Fire (320043) 1997\06 – Taurus Woman.wav
Pre-gap length 0:00:02.96
Peak level 97.2 %
Track quality 100.0 %
Test CRC 12C883B8
Copy CRC 12C883B8
Track not present in AccurateRip database
Copy OK
None of the tracks are present in the AccurateRip database
No errors occurred
End of status report
 
CUE
REM GENRE jazz
REM DATE 1997
REM DISCID 500A1306
REM COMMENT "ExactAudioCopy v0.99pb5"
PERFORMER "Carlos Garnett"
TITLE "Fire"
FILE "01 – Chana.wav" WAVE
TRACK 01 AUDIO
TITLE "Chana"
PERFORMER "Carlos Garnett"
FLAGS DCP
INDEX 01 00:00:00
TRACK 02 AUDIO
TITLE "Saxy"
PERFORMER "Carlos Garnett"
FLAGS DCP
INDEX 00 06:16:32
FILE "02 – Saxy.wav" WAVE
INDEX 01 00:00:00
TRACK 03 AUDIO
TITLE "Senor Trane"
PERFORMER "Carlos Garnett"
FLAGS DCP
INDEX 00 05:22:45
FILE "03 – Senor Trane.wav" WAVE
INDEX 01 00:00:00
TRACK 04 AUDIO
TITLE "Let Us Go (To Higher Heights)"
PERFORMER "Carlos Garnett"
FLAGS DCP
INDEX 00 07:39:35
FILE "04 – Let Us Go (To Higher Heights).wav" WAVE
INDEX 01 00:00:00
TRACK 05 AUDIO
TITLE "Memories Of Coltrane (Exerpt)"
PERFORMER "Carlos Garnett"
FLAGS DCP
INDEX 00 06:14:48
FILE "05 – Memories Of Coltrane (Exerpt).wav" WAVE
INDEX 01 00:00:00
TRACK 06 AUDIO
TITLE "Taurus Woman"
PERFORMER "Carlos Garnett"
FLAGS DCP
INDEX 00 04:57:60
FILE "06 – Taurus Woman.wav" WAVE
INDEX 01 00:00:00
По всем вопросам пишите личное сообщение пользователю M0p94ok.
02:57
138
Нет комментариев. Ваш будет первым!