Вы используете незарегистрированную версию компонента "Вкладки"!

Поиск

(Avant-Garde Jazz, Post-Bop, Trombone Jazz, Jazz Instrument) Ray Anderson - Old bottles new wine - 1985, FLAC (image+.cue), lossless

(Avant-Garde Jazz, Post-Bop, Trombone Jazz, Jazz Instrument) Ray Anderson - Old bottles new wine - 1985, FLAC (image+.cue), lossless
Треклист:
Ray Anderson - Old bottles new wine
Жанр: Avant-Garde Jazz, Post-Bop, Trombone Jazz, Jazz Instrument
Год выпуска диска: 1985
Аудио кодек: FLAC
Тип рипа: image+.cue
Битрейт аудио: lossless
Продолжительность: 39:26
Трэклист:
1. Love Me or Leave Me
2. Bohemia After Dark
3. La Rosita
4. Ow!
5. In a Mellow Tone
6. Laird Baird
7. Wine
 
EAC log
Exact Audio Copy V0.99 prebeta 4 from 23. January 2008
Отчёт EAC об извлечении, выполненном 16. ноября 2009, 15:30
Ray Anderson / Old bottles new wine
Дисковод: Optiarc BD ROM BC-5500A Adapter: 0 ID: 0
Режим чтения : Достоверность
Использование точного потока : Да
Отключение кэша аудио : Нет
Использование указателей C2 : Нет
Коррекция смещения при чтении : 48
Способность читать области Lead-in и Lead-out : Нет
Заполнение пропущенных сэмплов тишиной : Да
Удаление блоков с тишиной в начале и конце : Нет
При вычислениях CRC использовались нулевые сэмплы : Да
Интерфейс : Установленный внешний ASPI-интерфейс
Выходной формат : Пользовательский кодировщик
Выбранный битрейт : 768 kBit/s
Качество : Высокий
Добавление ID3-тэга : Нет
Утилита сжатия : D:\Program Files\Exact Audio Copy\FLAC\FLAC.EXE
Дополнительные параметры : -6 -V -T "ARTIST=%a" -T "TITLE=%t" -T "ALBUM=%g" -T "DATE=%y" -T "TRACKNUMBER=%n" -T "GENRE=%m" -T "COMMENT=%e" %s -o %d
TOC извлечённого CD
Трек | Старт | Длительность | Начальный сектор | Конечный сектор
---------------------------------------------------------------------
1 | 0:00.33 | 4:53.00 | 33 | 22007
2 | 4:53.33 | 5:21.00 | 22008 | 46082
3 | 10:14.33 | 6:33.00 | 46083 | 75557
4 | 16:47.33 | 3:37.00 | 75558 | 91832
5 | 20:24.33 | 6:30.00 | 91833 | 121082
6 | 26:54.33 | 5:46.00 | 121083 | 147032
7 | 32:40.33 | 6:46.37 | 147033 | 177519
Характеристики диапазона извлечения и сообщения об ошибках
Выбранный диапазон
Имя файла D:\Users\Sergio\Desktop\Ray Anderson 1985 Old Bottles - New Wine\Ray Anderson - Old bottles new wine.wav
Пиковый уровень 100.0 %
Качество диапазона 99.9 %
CRC копии 5C332B85
Копирование... OK
Ошибок не произошло
AccurateRip: сводка
Трек 1 точное извлечение (доверие 2) [4AB804C6]
Трек 2 точное извлечение (доверие 2) [0FF04AEA]
Трек 3 точное извлечение (доверие 2) [5E7C11FE]
Трек 4 точное извлечение (доверие 2) [862EAB8E]
Трек 5 точное извлечение (доверие 2) [1BC7E16C]
Трек 6 точное извлечение (доверие 2) [3653DCB3]
Трек 7 точное извлечение (доверие 2) [9E863C59]
Все треки извлечены точно
Конец отчёта
 
Tau
Этот диск на
Рип из сети, но AccurateRip проходит без ошибок.
По всем вопросам пишите личное сообщение пользователю M0p94ok.
17:33
225
Нет комментариев. Ваш будет первым!