Поиск

(Modern Creative / Ambient) Terje Isungset - Hibernation - 2009, FLAC (image+.cue), lossless

(Modern Creative / Ambient) Terje Isungset - Hibernation - 2009, FLAC (image+.cue), lossless
Треклист:
Terje Isungset - Hibernation
Жанр: Modern Creative / Ambient
Год выпуска диска: 2009
Производитель диска: Norway (All Ice 0905)
Аудио кодек: FLAC
Тип рипа: image+.cue
Битрейт аудио: lossless
Продолжительность: 44:32
Terje Isungset ice percussion, ice horn, iceofon, voice
Sara Marielle Gaup jolk
Peter Paelinck ice didgeridoo (1)
Eilif Gundersen ice horn (1)
1. Vena Leikros
2. Hibernation
3. Eadni Vuohttu Máná
4. Cáhcelottás
5. Polar Night
6. Nohkkadanlávlla
7. Sunrise Horizon
8. Olgun coaska biegga
9. Go North
10. Várjjatvuotna
11. Sledge Ride
12. Starlit
Recorded in an igloo at Geilo, Norway, January 20-23 2008
 
Review
With his favourite instrument, the horn (ice horn), sculpted in a block of ice dated of-2500 years, he imposes with humility and feelings its albums of serious, imposing sounds to see apocalyptic. "Hibernation" is the concentrated solution of this passion which lives in an artist for whom fire and ice merge.
Terje Isungset, the "Ice Man" from Norway, has carved out his own style of music, anchored in traditional music, tribal in nature, but free as the wind. With Hibernation, he moves his music even further into regions of greater purity and authenticity, limiting the instruments even more, to ice percussion and ice horn, with the vocals of Sara Marielle Gaup. It all sounds so unbelievably fresh, authentic and pristine, with a naiveness and sense of wonder that is almost childlike, but at the same time also spiritual, devoid of any burdens that weigh on the soul. There is no direction to the music, it seems to arise spontaneously, calm and almost natural, without any sense of urgency. As a Norwegian critic put it "ice cold and so much warmth", which is possibly the best description of the music. ~ freejazz-stef.blogspot.com
 
EAC Report
Exact Audio Copy V0.99 prebeta 4 from 23. January 2008
EAC extraction logfile from 20. July 2009, 0:06
Terje Isungset / Hibernation
Used drive : TSSTcorpCD/DVDW SH-S182M Adapter: 2 ID: 0
Read mode : Secure
Utilize accurate stream : Yes
Defeat audio cache : Yes
Make use of C2 pointers : No
Read offset correction : 6
Overread into Lead-In and Lead-Out : No
Fill up missing offset samples with silence : Yes
Delete leading and trailing silent blocks : No
Null samples used in CRC calculations : Yes
Used interface : Installed external ASPI interface
Used output format : User Defined Encoder
Selected bitrate : 1024 kBit/s
Quality : High
Add ID3 tag : No
Command line compressor : C:\Program Files\Exact Audio Copy\FLAC\FLAC.EXE
Additional command line options : -6 -V -T "ARTIST=%a" -T "TITLE=%t" -T "ALBUM=%g" -T "DATE=%y" -T "TRACKNUMBER=%n" -T "GENRE=%m" -T "COMMENT=%e" %s -o %d
TOC of the extracted CD
Track | Start | Length | Start sector | End sector
---------------------------------------------------------
1 | 0:00.00 | 5:47.41 | 0 | 26065
2 | 5:47.41 | 3:36.49 | 26066 | 42314
3 | 9:24.15 | 2:11.48 | 42315 | 52187
4 | 11:35.63 | 3:14.52 | 52188 | 66789
5 | 14:50.40 | 4:32.52 | 66790 | 87241
6 | 19:23.17 | 3:09.32 | 87242 | 101448
7 | 22:32.49 | 4:13.74 | 101449 | 120497
8 | 26:46.48 | 2:16.09 | 120498 | 130706
9 | 29:02.57 | 4:10.26 | 130707 | 149482
10 | 33:13.08 | 3:10.50 | 149483 | 163782
11 | 36:23.58 | 2:15.15 | 163783 | 173922
12 | 38:38.73 | 5:53.01 | 173923 | 200398
Range status and errors
Selected range
Filename C:\Documents and Settings\Igor\My Documents\My Music\eac\Terje Isungset - Hibernation.wav
Peak level 97.7 %
Range quality 100.0 %
Test CRC 28F80074
Copy CRC 28F80074
Copy OK
No errors occurred
AccurateRip summary
Track 1 accurately ripped (confidence 2) [852CC06D]
Track 2 accurately ripped (confidence 2) [F0FBD9E6]
Track 3 accurately ripped (confidence 2) [969C8988]
Track 4 accurately ripped (confidence 2) [70A9294E]
Track 5 accurately ripped (confidence 2) [3756B8F5]
Track 6 accurately ripped (confidence 2) [DC3517B5]
Track 7 accurately ripped (confidence 2) [CF68311C]
Track 8 accurately ripped (confidence 2) [BF4B82C0]
Track 9 accurately ripped (confidence 2) [E82E6F5E]
Track 10 accurately ripped (confidence 2) [2568E65D]
Track 11 accurately ripped (confidence 2) [3050BAC5]
Track 12 accurately ripped (confidence 2) [181C1790]
All tracks accurately ripped
End of status report
По всем вопросам пишите личное сообщение пользователю M0p94ok.
17:33
174
Нет комментариев. Ваш будет первым!