Поиск

(Free Jazz, Free Improvisation) Oliver Lake - Holding Together - 1976, APE (image+.cue), lossless

(Free Jazz, Free Improvisation) Oliver Lake - Holding Together - 1976, APE (image+.cue), lossless
Треклист:
Oliver LakeHolding Together
Жанр: Free Jazz, Free Improvisation
Год выпуска диска: 1976
Производитель диска: Black Saint 120009-2
Аудио кодек: APE
Тип рипа: image+.cue
Битрейт аудио: lossless
Продолжительность: 40:52
Трэклист:
1. Trailway Shake/Sad Lo-Uis 10:04
2. Hasan 4:12
3. USTA B 6:25
4. Holding Together 10:30
5. Machine Wing 7:39
6. Ballad 1:41
Oliver Lake — Sax (Alto), Sax (Soprano). Flute, Percussion
Michael Gregory Jackson — Guitar, Mandolin, Bamboo Flute, Percussion, Vocals
Fred Hopkins — Bass
Paul Maddox — Percussion, Drums
Доп. информация:
 
скрытый текст
Dusty Groove America:
"A sonically sensitive session from Oliver Lake — recorded in the mid 70s, in very relaxed quartet formation! Lake plays a range of reeds here — alto, soprano sax, and flute — and the group features lots of musings on guitar from Michael G Jackson, a player we don't know at all, but one who seems to have a harmelodic bent at some points, and a much more mellow one at others. Jackson's presence on the record really has a big impact on the sound — putting it somewhere in a space between James Blood Ulmer and Sonny Greenwich — and remaining rhythms are handled by Fred Hopkins on bass and Paul Maddox on drums and percussion."
 
EAC extraction logfile
Exact Audio Copy V0.99 prebeta 4 from 23. January 2008
EAC extraction logfile from 5. September 2009, 20:36
Oliver Lake / Holding Together
Used drive : HL-DT-STRW/DVD GCC-4242N Adapter: 1 ID: 0
Read mode : Secure
Utilize accurate stream : Yes
Defeat audio cache : Yes
Make use of C2 pointers : No
Read offset correction : 102
Overread into Lead-In and Lead-Out : No
Fill up missing offset samples with silence : Yes
Delete leading and trailing silent blocks : No
Null samples used in CRC calculations : Yes
Used interface : Native Win32 interface for Win NT & 2000
Used output format : Internal WAV Routines
Sample format : 44.100 Hz; 16 Bit; Stereo
TOC of the extracted CD
Track | Start | Length | Start sector | End sector
---------------------------------------------------------
1 | 0:00.33 | 10:09.50 | 33 | 45757
2 | 10:10.08 | 4:12.25 | 45758 | 64682
3 | 14:22.33 | 6:31.37 | 64683 | 94044
4 | 20:53.70 | 10:30.13 | 94045 | 141307
5 | 31:24.08 | 7:42.00 | 141308 | 175957
6 | 39:06.08 | 1:46.25 | 175958 | 183932
Range status and errors
Selected range
Filename C:\_\EAC_Out\Out\Oliver Lake - Holding Together\Oliver Lake - Holding Together.wav
Peak level 91.1 %
Range quality 100.0 %
Copy CRC BBDF83CC
Copy OK
No errors occurred
AccurateRip summary
Track 1 not present in database
Track 2 not present in database
Track 3 not present in database
Track 4 not present in database
Track 5 not present in database
Track 6 not present in database
None of the tracks are present in the AccurateRip database
End of status report
По всем вопросам пишите личное сообщение пользователю M0p94ok.
17:32
157
Нет комментариев. Ваш будет первым!