Вы используете незарегистрированную версию компонента "Вкладки"!

Поиск

(Avant-Garde Jazz / Post-Bop) Steve Lacy - The Door - 1989, FLAC (tracks+.cue), lossless

(Avant-Garde Jazz / Post-Bop) Steve Lacy - The Door - 1989, FLAC (tracks+.cue), lossless
Треклист:
Steve Lacy - The Door
Жанр: Avant-Garde Jazz / Post-Bop
Год выпуска диска: 1989
Производитель диска: США
Аудио кодек: FLAC
Тип рипа: tracks+.cue
Битрейт аудио: lossless
Продолжительность: 59:12
Трэклист:
01. The Door 7:26
02. Ugly Beauty 7:48
03. Cliches 8:27
04. Forgetful 7:21
05. Blinks 9:13
06. Coming Up 4:43
07. The Breath 4:25
08. Virgin Jungle 9:21
Музыканты:
Steve Lacy - soprano saxophone
Steve Potts - alto saxophone
Bobby Few - piano
Jean-Jacques Avinel - bass, thumb piano
Oliver Johnson - drums
Sam Woodyard - drums
Irene Aebi - violin
 
Рецензия на альбом The Door от allmusic.com (на английском)
Steve Lacy's second Novus release uses a variety of different instrumental combinations and each of the selections deserves a comment or two. "The Door" (a whimsical piece built off of the knock of a door) and Thelonious Monk's "Ugly Beauty" (played as a waltz) are performed by the soprano-saxophonist's quintet (consisting of altoist Steve Potts, pianist Bobby Few, bassist Jean-Jacques Avinel and drummer Oliver Johnson). Lacy and Potts take searching improvisations over the strong pulse of the rhythm section. "Cliches" is an overlong duet by Lacy and Avinel with the bassist switching to thumb piano. "Forgetful," a forgotten George Handy ballad originally sung by David Allyn with Boyd Raeburn's orchestra, is played very respectfully by the Lacy-Few duo. The quirky "Blinks" is a four-bar phrase (taken from Kid Ory) that is played up and down a standard scale. Finally there is "Virgin Jungle," the biggest curiosity of the date. Sam Woodyard (Duke Ellington's drummer for many years), was living in Paris and sat in as a second drummer with the group just a month before his death. With violinist Irene Aebi fitting into the role of a slightly spaced Ray Nance, "Virgin Jungle" gets into an Ellington/Juan Tizol groove that works very well. Overall this is a well-conceived and highly recommended set for Steve Lacy fans.
Scott Yanow
 
Рецензия на альбом The Door от allmusic.com (перевод)
На втором альбоме Steve Lacy для лейбла Novus используются разные комбинации инструментов и каждая из них заслуживает одного-двух слов комментария. "The Door" (причудливая пьеса построеная на основании стука в дверь) и "Ugly Beauty" Thelonious Monk'а (сыгранная как вальс) сыграны квинтетом (состоящим кроме Lacy из альто-саксофониста Steve Potts, пианиста Bobby Few, басиста Jean-Jacques Avinel и ударника Oliver Johnson). Lacy и Potts берут на себя импровизационные поиски на фоне мощного пульса ритм-секции. "Cliches" - затянутый дуэт Lacy и Avinel, который переключился с баса на пальцевое пианино (thumb piano). "Forgetful" забытая баллада George Handy в оригинале спетая David Allyn с оркестром Boyd Raeburn'а, сыграна с уважением дуэтом Lacy-Few. Причудливая "Blinks" - это четырехтактовая фраза (взятая из Kid Ory) сыгранная вверх и вниз по стандартной гамме. И наконец "Virgin Jungle" - наибольшая странность диска. Sam Woodyard (барабанщик Duke Ellington'а на протяжении многих лет) жил в Париже и принял участие в записи как второй ударник всего за месяц до своей смерти. Со скрипачем Irene Aebi подходящей на роль несколько воздушной Ray Nance, "Virgin Jungle" погружается в грув Ellington'а/Juan Tizol'а, и это работает очень хорошо. Таким образом имеем хорошо продуманую и весьма рекомендуемую запись для любителей Steve Lacy.
Скотт Яноу
 
EAC log
EAC extraction logfile from 31. January 2007, 13:00 for CD
Steve Lacy / The Door
Used drive : _NEC DVD_RW ND-3500AG Adapter: 3 ID: 1
Read mode : Secure with NO C2, accurate stream, disable cache
Read offset correction : 48
Overread into Lead-In and Lead-Out : No
Used output format : Internal WAV Routines
44.100 Hz; 16 Bit; Stereo
Other options :
Fill up missing offset samples with silence : Yes
Delete leading and trailing silent blocks : No
Native Win32 interface for Win NT & 2000
Track 1
Filename C:\tmp\Out\Steve Lacy - The Door - 01 - The Door.wav
Pre-gap length 0:00:02.00
Peak level 85.1 %
Track quality 100.0 %
Test CRC 6148D908
Copy CRC 6148D908
Copy OK
Track 2
Filename C:\tmp\Out\Steve Lacy - The Door - 02 - Ugly Beauty.wav
Peak level 76.2 %
Track quality 100.0 %
Test CRC 41CFAECC
Copy CRC 41CFAECC
Copy OK
Track 3
Filename C:\tmp\Out\Steve Lacy - The Door - 03 - Cliches.wav
Pre-gap length 0:00:00.60
Peak level 90.3 %
Track quality 100.0 %
Test CRC D476A61F
Copy CRC D476A61F
Copy OK
Track 4
Filename C:\tmp\Out\Steve Lacy - The Door - 04 - Forgetful.wav
Pre-gap length 0:00:00.15
Peak level 46.6 %
Track quality 100.0 %
Test CRC FC6AC094
Copy CRC FC6AC094
Copy OK
Track 5
Filename C:\tmp\Out\Steve Lacy - The Door - 05 - Blinks.wav
Pre-gap length 0:00:00.45
Peak level 97.2 %
Track quality 99.3 %
Test CRC 9F3B2782
Copy CRC 9F3B2782
Copy OK
Track 6
Filename C:\tmp\Out\Steve Lacy - The Door - 06 - Coming Up.wav
Pre-gap length 0:00:00.03
Peak level 96.1 %
Track quality 100.0 %
Test CRC F1717ADC
Copy CRC F1717ADC
Copy OK
Track 7
Filename C:\tmp\Out\Steve Lacy - The Door - 07 - The Breath.wav
Peak level 100.0 %
Track quality 100.0 %
Test CRC D4036DA7
Copy CRC D4036DA7
Copy OK
Track 8
Filename C:\tmp\Out\Steve Lacy - The Door - 08 - Virgin Jungle.wav
Peak level 100.0 %
Track quality 100.0 %
Test CRC 97F83BF9
Copy CRC 97F83BF9
Copy OK
No errors occured
End of status report
------------------------------------------------------------
EAC extraction logfile from 31. January 2007, 13:12 for CD
Steve Lacy / The Door
Used drive : TSSTcorpCDRWDVD TS-H492C Adapter: 0 ID: 1
Read mode : Secure with NO C2, accurate stream, disable cache
Read offset correction : 6
Overread into Lead-In and Lead-Out : No
Used output format : Internal WAV Routines
44.100 Hz; 16 Bit; Stereo
Other options :
Fill up missing offset samples with silence : Yes
Delete leading and trailing silent blocks : No
Native Win32 interface for Win NT & 2000
Track 5
Filename D:\tmp\Out\Steve Lacy - The Door - 05 - Blinks.wav
Pre-gap length 0:00:00.45
Peak level 97.2 %
Track quality 100.0 %
Copy CRC 9F3B2782
Copy OK
No errors occured
End of status report
 
можно обратить внимание также на другие lossless релизы свободного и авангардного джаза от laocha на rutracker.org
(Avant-Garde Jazz) Ben Monder Trio - Oceana - 2005, FLAC (image+.cue), lossless
(Avant-Garde Jazz) Ben Monder - Excavation - 2000, FLAC (image+.cue), lossless
(Avant-Garde Jazz) Ben Monder Trio - Flux - 1995, FLAC (image+.cue), lossless
(Avant-Garde Jazz) Cecil Taylor Unit - The Eighth - 1981, FLAC (tracks+.cue), lossless
(Avant-Garde Jazz) Cecil Taylor - Algonquin - 2004, APE (tracks), losless
(Avant-Garde Jazz) Henry Threadgill Very Very Circus - Carry The Day - 1995, FLAC (tracks), lossless
(Avant-Garde Jazz) Henry Threadgill Sextett - Rag, Bush and All - 1989, FLAC (image+.cue), lossless
(Avant-Garde Jazz) Pandelis Karayorgis, Mat Maneri - Disambiguation - 2002, FLAC (tracks+.cue), lossless
(Avant-Garde Jazz) Vinny Golia, Joelle Leandre & Ken Filiano - Haunting the Spirits Inside Them - 1995, APE (image+.cue), lossless
(Avant-Garde / Free Improvisation) Alexander Nesterov, Yuriy Yaremchuk / Александр Нестеров, Юрий Яремчук - Prepared Piano and Soprano Saxophone - 1994, FLAC (tracks+.cue), lossless
(Avant-Garde Jazz / Free Improvisation) Yuriy Yaremchuk, Sergej Zelenskiy / Юрий Яремчук, Сергей Зеленский - Figures - 2002, FLAC (tracks+.cue), lossless
(Avant-Garde Jazz / Free Improvisation) Yuriy Yaremchuk, Mark Tokar / Юрий Яремчук, Марк Токар - Eight Compositions - 2005, FLAC (tracks+.cue), lossless
(Avant-Garde Jazz / Free Improvisation) Yuriy Yaremchuk / Юрий Яремчук - Seven Compositions - 2006, FLAC (tracks+.cue), lossless
Any questions -> support@pro-jazz.com. По всем вопросам пишите -> support@pro-jazz.com
15:52
262
Нет комментариев. Ваш будет первым!