Вы используете незарегистрированную версию компонента "Вкладки"!

Поиск

(Avant-garde jazz) Borah Bergman, Anthony Braxton, Peter Brotzmann - Eight by Three - 1997, APE (image+.cue), lossless

Треклист:
Borah Bergman, Anthony Braxton, Peter Brotzmann - Eight by Three
Жанр: Avant-garde jazz
Год выпуска диска: 1997
Аудио кодек: APE
Тип рипа: image+.cue
Log:
 
скрытый текст
Exact Audio Copy V0.99 prebeta 4 from 23. January 2008
Отчёт EAC об извлечении, выполненном 29. октября 2009, 3:57
Borah Bergmann, Anthony Braxton, Peter Brцtzmann / Eight by Three
Дисковод: Optiarc DVD RW AD-7200S Adapter: 4 ID: 0
Режим чтения : Достоверность
Использование точного потока : Да
Отключение кэша аудио : Да
Использование указателей C2 : Нет
Коррекция смещения при чтении : 48
Способность читать области Lead-in и Lead-out : Нет
Заполнение пропущенных сэмплов тишиной : Да
Удаление блоков с тишиной в начале и конце : Нет
При вычислениях CRC использовались нулевые сэмплы : Да
Интерфейс : Встроенный Win32-интерфейс для Win NT/2000
Выходной формат : Внутренние WAV-операции
Формат сэмплов : 44.100 Гц; 16 бит; стерео
TOC извлечённого CD
Трек | Старт | Длительность | Начальный сектор | Конечный сектор
---------------------------------------------------------------------
1 | 0:00.30 | 6:01.65 | 30 | 27169
2 | 6:02.20 | 8:17.17 | 27170 | 64461
3 | 14:19.37 | 3:10.65 | 64462 | 78776
4 | 17:30.27 | 5:21.18 | 78777 | 102869
5 | 22:51.45 | 9:57.72 | 102870 | 147716
6 | 32:49.42 | 3:56.18 | 147717 | 165434
7 | 36:45.60 | 8:30.45 | 165435 | 203729
8 | 45:16.30 | 3:40.39 | 203730 | 220268
Характеристики диапазона извлечения и сообщения об ошибках
Выбранный диапазон
Имя файла D:\Music internet\Раздачи\Borah Bergmann, Anthony Braxton, Peter Brцtzmann - Eight by Three\Borah Bergmann, Anthony Braxton, Peter Brцtzmann - Eight by Three.wav
Пиковый уровень 96.8 %
Качество диапазона 100.0 %
CRC копии E031A753
Копирование... OK
Ошибок не произошло
AccurateRip: сводка
Трек 1 точное извлечение (доверие 2) [474C343B]
Трек 2 точное извлечение (доверие 2) [D91145D2]
Трек 3 точное извлечение (доверие 2) [8DB87646]
Трек 4 точное извлечение (доверие 2) [80461594]
Трек 5 точное извлечение (доверие 2) [2B805E4D]
Трек 6 точное извлечение (доверие 2) [B7A3D979]
Трек 7 точное извлечение (доверие 2) [7C85D540]
Трек 8 точное извлечение (доверие 2) [D649F44E]
Все треки извлечены точно
Конец отчёта
Трэклист:
1. - Falconets (6:01)
2. - Propelling The Barricade (8:17)
3. - La Bas (3:10)
4. - Bending The Blend (5:21)
5. - The Second Whirlpool (9:57)
6. - The Red Castle (3:56)
7. - Webology (8:30)
8. - Three Rivers (3:40)
Any questions -> support@pro-jazz.com. По всем вопросам пишите -> support@pro-jazz.com
15:53
221
Нет комментариев. Ваш будет первым!