Вы используете незарегистрированную версию компонента "Вкладки"!

Поиск

(Contemporary Jazz) Pat Metheny - 1996 - Passaggio per il paradiso (GED 77007), FLAC (image+.cue) lossless

(Contemporary Jazz) Pat Metheny - 1996 - Passaggio per il paradiso (GED 77007), FLAC (image+.cue) lossless
Треклист:

PAT METHENY
PASSAGGIO PER IL PARADISO
Genre: Contemporary Jazz, Soundtrack
Originally released: 1996
Country: USA
CD: Italy, MCA/Geffen, GED 77007, (1996)
Audio: FLAC (image+.cue)
Total time: 47:28
Source: own rip
Scans: 600 dpi .jpg
01. Theme from ''Passaggio per il paradiso'' (3:08)
02. Marta's Theme (1:47)
03. The Roads of Marche (3:09)
04. Marta's House Story (1:44)
05. Wolf Story (1:11)
06. Marta's Stag Story (3:43)
07. Learning on the Road (5:07)
08. Private Eye (1:16)
09. Marta on the Bus (3:12)
10. Remembering Home, Meeting the Kids (3:43)
11. Renato's Theme (2:37)
12. It's Always Worth the Trouble (13:35)
13. Don't Forget (Renato's Theme) (3:12)
 
Credits
All instruments played by Pat Metheny
Produced by Pat Metheny

 
Log
Exact Audio Copy V1.0 beta 3 from 29. August 2011
EAC extraction logfile from 13. December 2014, 16:59
Pat Metheny / Passaggio per il paradiso (GED 77007)
Used drive : HL-DT-STDVDRAM GE20NU11 Adapter: 0 ID: 1
Read mode : Secure
Utilize accurate stream : Yes
Defeat audio cache : Yes
Make use of C2 pointers : No
Read offset correction : 667
Overread into Lead-In and Lead-Out : No
Fill up missing offset samples with silence : Yes
Delete leading and trailing silent blocks : No
Null samples used in CRC calculations : Yes
Used interface : Native Win32 interface for Win NT & 2000
Used output format : User Defined Encoder
Selected bitrate : 896 kBit/s
Quality : High
Add ID3 tag : No
Command line compressor : C:\Program Files\EAC 3\Exact Audio Copy\Flac\flac.exe
Additional command line options : -V -8 %source%
TOC of the extracted CD
Track | Start | Length | Start sector | End sector
---------------------------------------------------------
1 | 0:00.00 | 3:08.12 | 0 | 14111
2 | 3:08.12 | 1:47.60 | 14112 | 22196
3 | 4:55.72 | 3:09.15 | 22197 | 36386
4 | 8:05.12 | 1:44.00 | 36387 | 44186
5 | 9:49.12 | 1:11.25 | 44187 | 49536
6 | 11:00.37 | 3:43.00 | 49537 | 66261
7 | 14:43.37 | 5:07.38 | 66262 | 89324
8 | 19:51.00 | 1:16.62 | 89325 | 95086
9 | 21:07.62 | 3:12.13 | 95087 | 109499
10 | 24:20.00 | 3:43.00 | 109500 | 126224
11 | 28:03.00 | 2:37.62 | 126225 | 138061
12 | 30:40.62 | 13:35.50 | 138062 | 199236
13 | 44:16.37 | 3:12.00 | 199237 | 213636
Range status and errors
Selected range
Filename C:\OdW\Pat Metheny (1996) Passaggio per il paradiso (GED 77007)\Pat Metheny - Passaggio per il paradiso (GED 77007).wav
Peak level 99.8 %
Extraction speed 1.7 X
Range quality 100.0 %
Test CRC 728C72CB
Copy CRC 728C72CB
Copy OK
No errors occurred
AccurateRip summary
Track 1 accurately ripped (confidence 10) [E3000508] (AR v2)
Track 2 accurately ripped (confidence 10) [945EA998] (AR v2)
Track 3 accurately ripped (confidence 10) [C74EB416] (AR v2)
Track 4 accurately ripped (confidence 10) [6B561241] (AR v2)
Track 5 accurately ripped (confidence 10) [3B67B631] (AR v2)
Track 6 accurately ripped (confidence 10) [3B739161] (AR v2)
Track 7 accurately ripped (confidence 10) [35A8A426] (AR v2)
Track 8 accurately ripped (confidence 10) [D51C1D32] (AR v2)
Track 9 accurately ripped (confidence 10) [A9820BAE] (AR v2)
Track 10 accurately ripped (confidence 10) [C3FD3D4F] (AR v2)
Track 11 accurately ripped (confidence 10) [126C605B] (AR v2)
Track 12 accurately ripped (confidence 10) [D43152BC] (AR v2)
Track 13 accurately ripped (confidence 10) [F175BCFA] (AR v2)
All tracks accurately ripped
End of status report
==== Log checksum 813B7B9570C93E90979A5233C081BE72F7B2F9A8566357CE8CF7778D7B4F26F7 ====
 
.cue
REM GENRE Soundtrack
REM DATE 1996
REM DISCID C80B200D
REM COMMENT "ExactAudioCopy v1.0b3"
PERFORMER "Pat Metheny"
TITLE "Passaggio per il paradiso (GED 77007)"
FILE "Pat Metheny - Passaggio per il paradiso (GED 77007).flac" WAVE
TRACK 01 AUDIO
TITLE "Theme from ''Passaggio per il paradiso''"
PERFORMER "Pat Metheny"
INDEX 01 00:00:00
TRACK 02 AUDIO
TITLE "Marta's Theme"
PERFORMER "Pat Metheny"
INDEX 01 03:08:12
TRACK 03 AUDIO
TITLE "The Roads of Marche"
PERFORMER "Pat Metheny"
INDEX 00 04:55:71
INDEX 01 04:55:72
TRACK 04 AUDIO
TITLE "Marta's House Story"
PERFORMER "Pat Metheny"
INDEX 00 08:05:11
INDEX 01 08:05:12
TRACK 05 AUDIO
TITLE "Wolf Story"
PERFORMER "Pat Metheny"
INDEX 00 09:49:11
INDEX 01 09:49:12
TRACK 06 AUDIO
TITLE "Marta's Stag Story"
PERFORMER "Pat Metheny"
INDEX 00 10:57:36
INDEX 01 11:00:37
TRACK 07 AUDIO
TITLE "Learning on the Road"
PERFORMER "Pat Metheny"
INDEX 00 14:43:36
INDEX 01 14:43:37
TRACK 08 AUDIO
TITLE "Private Eye"
PERFORMER "Pat Metheny"
INDEX 00 19:49:36
INDEX 01 19:51:00
TRACK 09 AUDIO
TITLE "Marta on the Bus"
PERFORMER "Pat Metheny"
INDEX 00 21:06:36
INDEX 01 21:07:62
TRACK 10 AUDIO
TITLE "Remembering Home, Meeting the Kids"
PERFORMER "Pat Metheny"
INDEX 00 24:18:61
INDEX 01 24:20:00
TRACK 11 AUDIO
TITLE "Renato's Theme"
PERFORMER "Pat Metheny"
INDEX 00 28:01:11
INDEX 01 28:03:00
TRACK 12 AUDIO
TITLE "It's Always Worth the Trouble"
PERFORMER "Pat Metheny"
INDEX 00 30:38:36
INDEX 01 30:40:62
TRACK 13 AUDIO
TITLE "Don't Forget (Renato's Theme}"
PERFORMER "Pat Metheny"
INDEX 00 44:16:36
INDEX 01 44:16:37
 
.accurip
[CUETools log; Date: 16.04.2015 22:01:10; Version: 2.1.4]
[CTDB TOCID: 3y68qxcWAkD5Tj4FKG4lBtptm8o-] found.
Track | CTDB Status
1 | (13/14) Accurately ripped
2 | (13/14) Accurately ripped
3 | (13/14) Accurately ripped
4 | (13/14) Accurately ripped
5 | (13/14) Accurately ripped
6 | (13/14) Accurately ripped
7 | (13/14) Accurately ripped
8 | (13/14) Accurately ripped
9 | (13/14) Accurately ripped
10 | (13/14) Accurately ripped
11 | (13/14) Accurately ripped
12 | (13/14) Accurately ripped
13 | (13/14) Accurately ripped
[AccurateRip ID: 00125e2b-00bef2a4-c80b200d] found.
Track [ CRC | V2 ] Status
01 [f87b70d7|e3000508] (14+12/28) Accurately ripped
02 [b76376d2|945ea998] (14+12/28) Accurately ripped
03 [2e2e819c|c74eb416] (14+12/28) Accurately ripped
04 [df0dc405|6b561241] (14+12/28) Accurately ripped
05 [3f6c1399|3b67b631] (14+12/28) Accurately ripped
06 [00f04fa3|3b739161] (14+12/28) Accurately ripped
07 [21aa3184|35a8a426] (14+12/28) Accurately ripped
08 [d8809d6b|d51c1d32] (14+12/28) Accurately ripped
09 [12f4c2d3|a9820bae] (14+12/28) Accurately ripped
10 [ee1896b0|c3fd3d4f] (14+12/28) Accurately ripped
11 [38d71d20|126c605b] (14+12/28) Accurately ripped
12 [491620d2|d43152bc] (14+12/28) Accurately ripped
13 [2c5d1613|f175bcfa] (14+12/28) Accurately ripped
Offsetted by -694:
01 [beb78322] (02/28) Accurately ripped
02 [93366ba0] (02/28) Accurately ripped
03 [72c95c48] (02/28) Accurately ripped
04 [0d706499] (02/28) Accurately ripped
05 [51fd5e38] (02/28) Accurately ripped
06 [a9fcc684] (02/28) Accurately ripped
07 [8b657776] (02/28) Accurately ripped
08 [2563d177] (02/28) Accurately ripped
09 [744c9b27] (02/28) Accurately ripped
10 [7560a754] (02/28) Accurately ripped
11 [f3bac557] (02/28) Accurately ripped
12 [530fca8e] (02/28) Accurately ripped
13 [0d0faf58] (02/28) Accurately ripped
Offsetted by -1340:
01 [dfc0f21a] (00/28) No match (V2 was not tested)
02 [ac508031] (00/28) No match (V2 was not tested)
03 [242ee88e] (00/28) No match (V2 was not tested)
04 [ea2b2100] (00/28) No match (V2 was not tested)
05 [6573dbac] (00/28) No match (V2 was not tested)
06 [54a086a0] (00/28) No match (V2 was not tested)
07 [8767daea] (00/28) No match (V2 was not tested)
08 [77f1e23d] (00/28) No match (V2 was not tested)
09 [2c52f6aa] (00/28) No match (V2 was not tested)
10 [662f3d7c] (00/28) No match (V2 was not tested)
11 [d6a79e04] (00/28) No match (V2 was not tested)
12 [0009d61e] (00/28) No match (V2 was not tested)
13 [d903ad95] (00/28) No match (V2 was not tested)
Track Peak [ CRC32 ] [W/O NULL] [ LOG ]
-- 99,8 [728C72CB] [7B43E4CA] CRC32
01 96,5 [77B1F035] [B9C278EE]
02 64,8 [DC6D59FE] [587D756F]
03 97,0 [D7041085] [7B67A0B3]
04 74,6 [5E2D13E9] [1985D303]
05 21,9 [BFE4A509] [7EC3F340]
06 42,3 [83CDE8B2] [EBCC1B49]
07 62,4 [3494AD43] [9D1F7A5C]
08 39,0 [2DBED37B] [422AFE53]
09 63,0 [E4CA6038] [DEE802A1]
10 58,2 [BABB9189] [81A6BF9F]
11 50,7 [CB36F514] [CE9CE374]
12 99,8 [D39B1902] [4BCE34C5]
13 90,2 [B76BB68D] [5EE0D8CA]

 
CD, Matrix, Back
Any questions -> support@pro-jazz.com. По всем вопросам пишите -> support@pro-jazz.com
15:52
349
Нет комментариев. Ваш будет первым!