Вы используете незарегистрированную версию компонента "Вкладки"!

Поиск

(Avant-Garde Jazz, Post-Bop) Eric Dolphy - Out To Lunch! - (1964) - 1994, FLAC (tracks+.cue), lossless

Треклист:
Eric Dolphy - Out To Lunch!
Жанр: Avant-Garde Jazz, Post-Bop
Страна-производитель диска: Japan
Год издания диска: (1964) - 1994
Издатель (лейбл): Blue Note Japan / Toshiba-EMI
Номер по каталогу: TOCJ-4163
Страна: US Los Angeles, CA
Аудиокодек: FLAC (*.flac)
Тип рипа: tracks+.cue
Битрейт аудио: lossless
Продолжительность: 00:42:18
Источник (релизер): ruskaval
Наличие сканов в содержимом раздачи: да
01. Hat And Beard [08:24]
02. Something Sweet, Something Tender [06:03]
03. Gazzelloni [07:21]
04. Out To Lunch [12:07]
05. Straight Up And Down [08:21]
 
Лог создания рипа
Exact Audio Copy V0.99 prebeta 4 from 23. January 2008
EAC extraction logfile from 31. May 2009, 22:39
Eric Dolphy / Out To Lunch
Used drive : _NEC DVD_RW ND-3550A Adapter: 1 ID: 0
Read mode : Secure
Utilize accurate stream : Yes
Defeat audio cache : Yes
Make use of C2 pointers : No
Read offset correction : 48
Overread into Lead-In and Lead-Out : No
Fill up missing offset samples with silence : Yes
Delete leading and trailing silent blocks : No
Null samples used in CRC calculations : Yes
Used interface : Native Win32 interface for Win NT & 2000
Gap handling : Appended to previous track
Used output format : User Defined Encoder
Selected bitrate : 768 kBit/s
Quality : High
Add ID3 tag : No
Command line compressor : C:\Program Files\EAC0.99PB4\FLAC\FLAC.EXE
Additional command line options : -6 -V -T "ARTIST=%a" -T "TITLE=%t" -T "ALBUM=%g" -T "DATE=%y" -T "TRACKNUMBER=%n" -T "GENRE=%m" -T "COMMENT=%e" %s -o %d
TOC of the extracted CD
Track | Start | Length | Start sector | End sector
---------------------------------------------------------
1 | 0:00.00 | 8:27.17 | 0 | 38041
2 | 8:27.17 | 6:05.53 | 38042 | 65469
3 | 14:32.70 | 7:24.02 | 65470 | 98771
4 | 21:56.72 | 12:10.25 | 98772 | 153546
5 | 34:07.22 | 8:21.30 | 153547 | 191151
Track 1
Filename C:\EAC Rip\01 - Hat And Beard.wav
Pre-gap length 0:00:02.00
Peak level 100.0 %
Track quality 100.0 %
Test CRC C5484DB4
Copy CRC C5484DB4
Track not present in AccurateRip database
Copy OK
Track 2
Filename C:\EAC Rip\02 - Something Sweet, Something Tender.wav
Pre-gap length 0:00:02.49
Peak level 88.2 %
Track quality 100.0 %
Test CRC 5BE0DAEC
Copy CRC 5BE0DAEC
Track not present in AccurateRip database
Copy OK
Track 3
Filename C:\EAC Rip\03 - Gazzelloni.wav
Pre-gap length 0:00:02.50
Peak level 99.7 %
Track quality 100.0 %
Test CRC 50821803
Copy CRC 50821803
Track not present in AccurateRip database
Copy OK
Track 4
Filename C:\EAC Rip\04 - Out To Lunch.wav
Pre-gap length 0:00:02.49
Peak level 99.3 %
Track quality 100.0 %
Test CRC BA157FE5
Copy CRC BA157FE5
Track not present in AccurateRip database
Copy OK
Track 5
Filename C:\EAC Rip\05 - Straight Up And Down.wav
Pre-gap length 0:00:02.49
Peak level 98.4 %
Track quality 100.0 %
Test CRC 1D4CDAD3
Copy CRC 1D4CDAD3
Track not present in AccurateRip database
Copy OK
None of the tracks are present in the AccurateRip database
No errors occurred
End of status report
 
Содержание индексной карты (.CUE)
REM GENRE Jazz
REM DATE 1964
REM DISCID 3F09F405
REM COMMENT "ExactAudioCopy v0.99pb4"
PERFORMER "Eric Dolphy"
TITLE "Out To Lunch"
FILE "01 - Hat And Beard.wav" WAVE
TRACK 01 AUDIO
TITLE "Hat And Beard"
PERFORMER "Eric Dolphy"
INDEX 01 00:00:00
TRACK 02 AUDIO
TITLE "Something Sweet, Something Tender"
PERFORMER "Eric Dolphy"
INDEX 00 08:24:55
FILE "02 - Something Sweet, Something Tender.wav" WAVE
INDEX 01 00:00:00
TRACK 03 AUDIO
TITLE "Gazzelloni"
PERFORMER "Eric Dolphy"
INDEX 00 06:03:15
FILE "03 - Gazzelloni.wav" WAVE
INDEX 01 00:00:00
TRACK 04 AUDIO
TITLE "Out To Lunch"
PERFORMER "Eric Dolphy"
INDEX 00 07:21:40
FILE "04 - Out To Lunch.wav" WAVE
INDEX 01 00:00:00
TRACK 05 AUDIO
TITLE "Straight Up And Down"
PERFORMER "Eric Dolphy"
INDEX 00 12:07:63
FILE "05 - Straight Up And Down.wav" WAVE
INDEX 01 00:00:00
 
Лог проверки качества
-----------------------
DON'T MODIFY THIS FILE
-----------------------
PERFORMER: auCDtect Task Manager, ver. 1.5.1RC6 build 1.5.1.7
Copyright (c) 2008-2010 y-soft. All rights reserved
http://y-soft.org
ANALYZER: auCDtect: CD records authenticity detector, version 0.8.2
Copyright (c) 2004 Oleg Berngardt. All rights reserved.
Copyright (c) 2004 Alexander Djourik. All rights reserved.
FILE: 05 - Straight Up And Down.flac
Size: 52278376 Hash: A152862FB2912B394964C17E903A13AD Accuracy: -m0
Conclusion: CDDA 99%
Signature: 7EE6ACEB45665C45D4875BF7131B87D7F8880375
FILE: 04 - Out To Lunch.flac
Size: 71526420 Hash: 70E097569A8DB0C341DC2CB4A5C35D24 Accuracy: -m0
Conclusion: CDDA 100%
Signature: ABFA6D4742357BE76CC47B87475C0DBC71EE0C38
FILE: 03 - Gazzelloni.flac
Size: 46600493 Hash: 457F37E264853B8C2812D664C02CDCCF Accuracy: -m0
Conclusion: CDDA 100%
Signature: 9ABD36CF8BB101A1EACF4549AD5CA68DD39103BE
FILE: 02 - Something Sweet, Something Tender.flac
Size: 31963833 Hash: 5539BF5696019F2F1A3F336425DA94C0 Accuracy: -m0
Conclusion: CDDA 100%
Signature: 75D75641EAC3CE1D49B2077D7A335BC0881D6600
FILE: 01 - Hat And Beard.flac
Size: 51136311 Hash: C717163ACB049D5DE7BDA8020A96229F Accuracy: -m0
Conclusion: CDDA 100%
Signature: 85D8ED7481CA34F80B7EC51A54354ED6F5FCDFFB
 
Состав
Eric Dolphy (alto saxophone, flute, bass clarinet)
Freddie Hubbard (trumpet)
Bobby Hutcherson (vibraphone)
Richard Davis (bass)
Tony Williams (drums)
Any questions -> support@pro-jazz.com. По всем вопросам пишите -> support@pro-jazz.com
18:34
235
Нет комментариев. Ваш будет первым!