Вы используете незарегистрированную версию компонента "Вкладки"!

Поиск

(Free Jazz, Avant-garde) Mooko (Bill Laswell, Akira Sakata, Ronald Shannon Jackson, Kiyohiko Semba) - Japan Concerts - 1988 ( 1992 ), APE (image+.cue), lossless

(Free Jazz, Avant-garde) Mooko (Bill Laswell, Akira Sakata, Ronald Shannon Jackson, Kiyohiko Semba) - Japan Concerts - 1988 ( 1992 ), APE (image+.cue), lossless
Треклист:
Mooko ( Bill Laswell, Akira Sakata, Ronald Shannon Jackson, Kiyohiko Semba ) / Japan Concerts
Жанр: Free Jazz, Avant-garde
Страна-производитель диска: Holland
Год издания диска: 1992
Год записи:1988
Издатель (лейбл): Celluloid
Номер по каталогу: CELD6175
Страна: Japan/USA
Аудиокодек: APE (*.ape)
Тип рипа: image+.cue
Битрейт аудио: lossless
Продолжительность: 39:20
Источник (релизер): barin99
Наличие сканов в содержимом раздачи: да
Треклист:
1. Nitchino Satchimo 9:42
2. Hunnahahna-Bushi 7:13
3. Itai-Itai 2:02
4. Mooko No Ohkami (A Mongolian Wolf) 5:21
5. Ryoshi Ga Kita (A Hunter Is Coming) 14:59
 
Лог создания рипа
Exact Audio Copy V1.0 beta 1 from 15. November 2010
EAC extraction logfile from 28. October 2011, 20:57
Mooko / Japan Concerts
Used drive : TSSTcorpDVD+-RW TS-L532B Adapter: 1 ID: 0
Read mode : Secure
Utilize accurate stream : Yes
Defeat audio cache : Yes
Make use of C2 pointers : No
Read offset correction : 704
Overread into Lead-In and Lead-Out : No
Fill up missing offset samples with silence : Yes
Delete leading and trailing silent blocks : No
Null samples used in CRC calculations : Yes
Used interface : Native Win32 interface for Win NT & 2000
Used output format : Internal WAV Routines
Sample format : 44.100 Hz; 16 Bit; Stereo
TOC of the extracted CD
Track | Start | Length | Start sector | End sector
---------------------------------------------------------
1 | 0:00.33 | 9:42.32 | 33 | 43714
2 | 9:42.65 | 7:13.55 | 43715 | 76244
3 | 16:56.45 | 2:02.10 | 76245 | 85404
4 | 18:58.55 | 5:21.35 | 85405 | 109514
5 | 24:20.15 | 14:59.30 | 109515 | 176969
Range status and errors
Selected range
Filename C:\Documents and Settings\VB\My Documents\BARIN99\Mooko - Japan Concerts\Mooko - Japan Concerts.wav
Peak level 94.0 %
Extraction speed 1.0 X
Range quality 100.0 %
Copy CRC C7C06393
Copy OK
No errors occurred
AccurateRip summary
Track 1 accurately ripped (confidence 2) [DF45CC60]
Track 2 not present in database
Track 3 not present in database
Track 4 not present in database
Track 5 accurately ripped (confidence 1) [90885129]
2 track(s) accurately ripped
3 track(s) not present in the AccurateRip database
Some tracks could not be verified as accurate
End of status report
 
Содержание индексной карты (.CUE)
REM GENRE Avantgarde
REM DISCID 30093705
REM COMMENT "ExactAudioCopy v1.0b1"
PERFORMER "Mooko"
TITLE "Japan Concerts"
FILE "Mooko - Japan Concerts.wav" WAVE
TRACK 01 AUDIO
TITLE "Nitchino Satchimo"
PERFORMER "Mooko"
INDEX 00 00:00:00
INDEX 01 00:00:33
TRACK 02 AUDIO
TITLE "Hunnahahna - Bushi"
PERFORMER "Mooko"
INDEX 01 09:42:65
TRACK 03 AUDIO
TITLE "Itai - Itai"
PERFORMER "Mooko"
INDEX 00 16:56:44
INDEX 01 16:56:45
TRACK 04 AUDIO
TITLE "Mooko no Ohkami (A Mongolian Wolf)"
PERFORMER "Mooko"
INDEX 00 18:57:20
INDEX 01 18:58:55
TRACK 05 AUDIO
TITLE "Ryoshi ga Kita (A Hunter is Coming)"
PERFORMER "Mooko"
INDEX 01 24:20:15
 
Об альбоме (сборнике)
AMG:
"Mooko was the working title for a short-lived trio comprising Japanese free reed player Akira Sakata, peripatetic bassist Bill Laswell and drummer Ronald Shannon Jackson. Sakata had performed with Laswell's Last Exit quartet and the music here draws somewhat from that ethos albeit without the rockish overtones derived from Sonny Sharrock's guitar. Still, for all the free jazz inspired caterwauling from Sakata, who's a capable if monochromatic player, Laswell takes many opportunities to lay down thick, funky basslines jauntily matched by Jackson. The pieces are somewhat more composed than those with Last Exit, presumably by Sakata (though, typically for a Celluloid release, no information is provided) but they still manage to meander a bit. Those that work best, however, are the less thematically oriented ones which give Sakata a chance to let loose and, at the same time, don't allow the rhythm team to fall into predictable patterns. Constrained by melodies, he appears about as comfortable as Peter Brotzmann would be in similar circumstances. Combined with his non-varying approach, this makes for a set that begins fresh but grows increasingly tiring as it goes on. There's some nice enough individual playing here (and Sakata's rough singing on the final cut is pretty impressive), but the group aspect degenerates too often into a lazy kind of jam to make it recommendable to all but completists."
 
Состав
Akira Sakata — Clarinet, Sax (Alto), Voices
Bill Laswell — Bass, Violin
Ronald Shannon Jackson — Drums, Percussion
+
Kiyohiko Semba — Percussion
Any questions - support@pro-jazz.com. Есть вопросы - support@pro-jazz.com
18:33
300
Нет комментариев. Ваш будет первым!