Вы используете незарегистрированную версию компонента "Вкладки"!

Поиск

(avant-garde) Jason Kao Hwang - Stories Before Within 2007, FLAC (tracks+.cue), lossless

(avant-garde) Jason Kao Hwang - Stories Before Within 2007, FLAC (tracks+.cue), lossless
Треклист:

Jason Kao Hwang - Stories Before Within 2007 /
Жанр: avant-garde
Год издания диска: 2007
Издатель (лейбл): Innova
Аудиокодек: FLAC (*.flac)
Тип рипа: tracks+.cue
Битрейт аудио: lossless
Продолжительность: 51`26
Источник (релизер): what.cd
Наличие сканов в содержимом раздачи: нет
Треклист:
01 Cloud Call.flac
02 From East Sixth Street.flac
03 Walking Pictures.flac
04 Third Sight.flac
05 Embers.flac
 
Содержание индексной карты (.CUE)
REM GENRE Avant - jazz
REM DATE 2007
CATALOG 689
PERFORMER "Jason Kao Hwang"
TITLE "Stories from Before Within"
FILE "01 Cloud Call.flac" WAVE
TRACK 01 AUDIO
TITLE "Cloud Call"
INDEX 01 00:00:00
FILE "02 From East Sixth Street.flac" WAVE
TRACK 02 AUDIO
TITLE "From East Sixth Street"
INDEX 01 00:00:00
FILE "03 Walking Pictures.flac" WAVE
TRACK 03 AUDIO
TITLE "Walking Pictures"
INDEX 01 00:00:00
FILE "04 Third Sight.flac" WAVE
TRACK 04 AUDIO
TITLE "Third Sight"
INDEX 01 00:00:00
FILE "05 Embers.flac" WAVE
TRACK 05 AUDIO
TITLE "Embers"
INDEX 01 00:00:00
 
Лог проверки качества
auCDtect: CD records authenticity detector, version 0.8.2
Copyright (c) 2004 Oleg Berngardt. All rights reserved.
Copyright (c) 2004 Alexander Djourik. All rights reserved.
------------------------------------------------------------
Processing file: [01 Cloud Call.wav]
------------------------------------------------------------
This track looks like CDDA with probability 100%
------------------------------------------------------------
Processing file: [02 From East Sixth Street.wav]
------------------------------------------------------------
This track looks like CDDA with probability 100%
------------------------------------------------------------
Processing file: [03 Walking Pictures.wav]
------------------------------------------------------------
This track looks like CDDA with probability 99%
------------------------------------------------------------
Processing file: [04 Third Sight.wav]
------------------------------------------------------------
This track looks like CDDA with probability 100%
------------------------------------------------------------
Processing file: [05 Embers.wav]
------------------------------------------------------------
This track looks like CDDA with probability 100%
------------------------------------------------------------
Final Conclusion:
------------------------------------------------------------
These tracks looks like CDDA with probability 100%
AMG review: http://www.allmusic.com/album/stories-before-within-r1313579
другие релизы
Any questions -> support@pro-jazz.com. По всем вопросам пишите -> support@pro-jazz.com
18:35
202
Нет комментариев. Ваш будет первым!