Вы используете незарегистрированную версию компонента "Вкладки"!

Поиск

(Avant-Garde Jazz, Post-Bop) [CD] Michael Marcus - For Yes! - 2010, FLAC (tracks+.cue), lossless

(Avant-Garde Jazz, Post-Bop) [CD] Michael Marcus - For Yes! - 2010, FLAC (tracks+.cue), lossless
Треклист:
Michael Marcus - For Yes!
Жанр: Avant-Garde Jazz, Post-Bop
Носитель: CD
Год записи альбома: 2010
Год издания: 2011 ?
Издатель (лейбл): Not Two Records
Номер по каталогу: MW 848-2
Аудиокодек: FLAC (*.flac)
Тип рипа: tracks+.cue
Битрейт аудио: lossless
Продолжительность: 1:01:06
Источник: Собственные рипы
Наличие сканов в содержимом раздачи: да
Треклист:
01. Bird Comes Home - 8:20
02. Dragon Concerto - 6:24
03. Healing Teardrops - 7:01
04. In A Lagoon, Blue Magenta - 6:20
05. Mojo Breakfast - 9:54
06. Night Eyes In Spring - 4:28
07. Riff-Be-In - 5:33
08. Theme Dream - 8:01
09. For Yes! - 5:05
 
МУЗЫКАНТЫ
Michael Marcus - Bb Clarinet
Lenwwod Turner - Trumpet
John Austria - Rhodes Piano (tr. 1,2,5,6,8,9)
Rashaan Carter - Bass
Clifford Barbaro - Drums (tr. 8)
Darrell Green - Drums (tr. 5)
Emannuel Harrold - Drums (tr. 3)
Jay Rosen - Drums (tr. 2,4,6,7)
Russell Carter - Drums (tr. 1,9)
 
Лог создания рипа
Exact Audio Copy V1.0 beta 3 from 29. August 2011
EAC extraction logfile from 14. March 2014, 2:12
Michael Marcus / For Yes!
Used drive : HL-DT-STDVD-RAM GSA-H55N Adapter: 0 ID: 1
Read mode : Secure
Utilize accurate stream : Yes
Defeat audio cache : Yes
Make use of C2 pointers : No
Read offset correction : 102
Overread into Lead-In and Lead-Out : Yes
Fill up missing offset samples with silence : Yes
Delete leading and trailing silent blocks : No
Null samples used in CRC calculations : Yes
Used interface : Native Win32 interface for Win NT & 2000
Gap handling : Appended to previous track
Used output format : User Defined Encoder
Selected bitrate : 128 kBit/s
Quality : High
Add ID3 tag : No
Command line compressor : G:\Program Files\Exact Audio Copy\Encoder\flac.exe
Additional command line options : -V -8 -T "Genre=%genre%" -T "Artist=%artist%" -T "Title=%title%" -T "Album=%albumtitle%" -T "Date=%year%" -T "Tracknumber=%tracknr%" -T "Comment=EAC1.0b3 FLAC -8" %source%
TOC of the extracted CD
Track | Start | Length | Start sector | End sector
---------------------------------------------------------
1 | 0:00.00 | 8:20.00 | 0 | 37499
2 | 8:20.00 | 6:24.00 | 37500 | 66299
3 | 14:44.00 | 7:01.00 | 66300 | 97874
4 | 21:45.00 | 6:20.00 | 97875 | 126374
5 | 28:05.00 | 9:54.00 | 126375 | 170924
6 | 37:59.00 | 4:28.00 | 170925 | 191024
7 | 42:27.00 | 5:32.38 | 191025 | 215962
8 | 47:59.38 | 8:01.00 | 215963 | 252037
9 | 56:00.38 | 5:05.00 | 252038 | 274912
Track 1
Filename F:\WAV\01 - Bird Comes Home.wav
Pre-gap length 0:00:02.00
Peak level 91.6 %
Extraction speed 2.5 X
Track quality 99.9 %
Test CRC 24848D54
Copy CRC 24848D54
Track not present in AccurateRip database
Copy OK
Track 2
Filename F:\WAV\02 - Dragon Concerto.wav
Pre-gap length 0:00:02.00
Peak level 90.5 %
Extraction speed 2.1 X
Track quality 100.0 %
Test CRC B0723089
Copy CRC B0723089
Track not present in AccurateRip database
Copy OK
Track 3
Filename F:\WAV\03 - Healing Teardrops.wav
Pre-gap length 0:00:02.00
Peak level 94.8 %
Extraction speed 2.3 X
Track quality 100.0 %
Test CRC C3CDC2EC
Copy CRC C3CDC2EC
Track not present in AccurateRip database
Copy OK
Track 4
Filename F:\WAV\04 - In A Lagoon, Blue Magenta.wav
Pre-gap length 0:00:02.00
Peak level 94.8 %
Extraction speed 3.4 X
Track quality 100.0 %
Test CRC BDC12732
Copy CRC BDC12732
Track not present in AccurateRip database
Copy OK
Track 5
Filename F:\WAV\05 - Mojo Breakfast.wav
Pre-gap length 0:00:02.00
Peak level 91.6 %
Extraction speed 2.9 X
Track quality 100.0 %
Test CRC E7BC4FCD
Copy CRC E7BC4FCD
Track not present in AccurateRip database
Copy OK
Track 6
Filename F:\WAV\06 - Night Eyes In Spring.wav
Pre-gap length 0:00:02.00
Peak level 91.6 %
Extraction speed 2.9 X
Track quality 100.0 %
Test CRC 63BEF292
Copy CRC 63BEF292
Track not present in AccurateRip database
Copy OK
Track 7
Filename F:\WAV\07 - Riff-Be-In.wav
Pre-gap length 0:00:02.00
Peak level 91.6 %
Extraction speed 4.1 X
Track quality 100.0 %
Test CRC 8DC59C33
Copy CRC 8DC59C33
Track not present in AccurateRip database
Copy OK
Track 8
Filename F:\WAV\08 - Theme Dream.wav
Pre-gap length 0:00:02.00
Peak level 91.6 %
Extraction speed 4.4 X
Track quality 100.0 %
Test CRC B0AF1B5B
Copy CRC B0AF1B5B
Track not present in AccurateRip database
Copy OK
Track 9
Filename F:\WAV\09 - For Yes!.wav
Pre-gap length 0:00:02.00
Peak level 91.6 %
Extraction speed 5.1 X
Track quality 100.0 %
Test CRC D7C534FC
Copy CRC D7C534FC
Track not present in AccurateRip database
Copy OK
None of the tracks are present in the AccurateRip database
No errors occurred
End of status report
==== Log checksum 2B19FED270ADAFB9DBBF75FB4A99AA7493883B8331542A6DE1A2B6D8A270528F ====
 
Содержание индексной карты (.CUE)
REM GENRE Jazz
REM DATE 2010
REM DISCID 820E5109
REM COMMENT "ExactAudioCopy v1.0b3"
PERFORMER "Michael Marcus"
TITLE "For Yes!"
FILE "01 - Bird Comes Home.wav" WAVE
TRACK 01 AUDIO
TITLE "Bird Comes Home"
PERFORMER "Michael Marcus"
INDEX 01 00:00:00
TRACK 02 AUDIO
TITLE "Dragon Concerto"
PERFORMER "Michael Marcus"
INDEX 00 08:18:00
FILE "02 - Dragon Concerto.wav" WAVE
INDEX 01 00:00:00
TRACK 03 AUDIO
TITLE "Healing Teardrops"
PERFORMER "Michael Marcus"
INDEX 00 06:22:00
FILE "03 - Healing Teardrops.wav" WAVE
INDEX 01 00:00:00
TRACK 04 AUDIO
TITLE "In A Lagoon, Blue Magenta"
PERFORMER "Michael Marcus"
INDEX 00 06:59:00
FILE "04 - In A Lagoon, Blue Magenta.wav" WAVE
INDEX 01 00:00:00
TRACK 05 AUDIO
TITLE "Mojo Breakfast"
PERFORMER "Michael Marcus"
INDEX 00 06:18:00
FILE "05 - Mojo Breakfast.wav" WAVE
INDEX 01 00:00:00
TRACK 06 AUDIO
TITLE "Night Eyes In Spring"
PERFORMER "Michael Marcus"
INDEX 00 09:52:00
FILE "06 - Night Eyes In Spring.wav" WAVE
INDEX 01 00:00:00
TRACK 07 AUDIO
TITLE "Riff-Be-In"
PERFORMER "Michael Marcus"
INDEX 00 04:26:00
FILE "07 - Riff-Be-In.wav" WAVE
INDEX 01 00:00:00
TRACK 08 AUDIO
TITLE "Theme Dream"
PERFORMER "Michael Marcus"
INDEX 00 05:30:38
FILE "08 - Theme Dream.wav" WAVE
INDEX 01 00:00:00
TRACK 09 AUDIO
TITLE "For Yes!"
PERFORMER "Michael Marcus"
INDEX 00 07:59:00
FILE "09 - For Yes!.wav" WAVE
INDEX 01 00:00:00
Any questions -> support@pro-jazz.com. По всем вопросам пишите -> support@pro-jazz.com
00:11
206
Нет комментариев. Ваш будет первым!