Вы используете незарегистрированную версию компонента "Вкладки"!

Поиск

(Free Jazz, Modern Composition) [CD] The Tony Wilson Sextet (feat. Peggy Lee, Paul Blaney, Dylan Van Der Schyff) - The People Look Like Flowers At Last - 2009, FLAC (tracks+.cue), lossless

(Free Jazz, Modern Composition) [CD] The Tony Wilson Sextet (feat. Peggy Lee, Paul Blaney, Dylan Van Der Schyff) - The People Look Like Flowers At Last - 2009, FLAC (tracks+.cue), lossless
Треклист:
The Tony Wilson Sextet / The People Look Like Flowers At Last
Жанр: Free Jazz, Modern Composition
Носитель: CD
Страна-производитель диска: Canada
Год издания: 2009
Издатель (лейбл): Drip Audio
Номер по каталогу: DA00482
Страна: Canada
Аудиокодек: FLAC (*.flac)
Тип рипа: tracks+.cue
Битрейт аудио: lossless
Продолжительность: 48:53
Источник (релизер): свой фирменный диск
Наличие сканов в содержимом раздачи:
Треклист:
Lachrymae
1. Prelude
2. Movement #1
3. Movement #2
4. Movement #4
5. Movement #4 Variation
6. Movement #7
7. Movement #7 Variation
8. Movement #10
9. Movement #11
10. Arpeggio
11. The People Look Like Flowers At Last
12. Let The Monkeys Dance
13. Variation On A Theme By Bill Monroe
 
Лог создания рипа
Exact Audio Copy V1.0 beta 3 from 29. August 2011
EAC extraction logfile from 22. February 2014, 14:50
The Tony Wilson Sextet / The People Look Like Flowers At Last
Used drive : PIONEER DVD-RW DVR-115D Adapter: 0 ID: 0
Read mode : Secure
Utilize accurate stream : Yes
Defeat audio cache : Yes
Make use of C2 pointers : No
Read offset correction : 48
Overread into Lead-In and Lead-Out : No
Fill up missing offset samples with silence : Yes
Delete leading and trailing silent blocks : No
Null samples used in CRC calculations : Yes
Used interface : Installed external ASPI interface
Gap handling : Appended to previous track
Used output format : User Defined Encoder
Selected bitrate : 896 kBit/s
Quality : High
Add ID3 tag : No
Command line compressor : C:\Program Files\Exact Audio Copy\FLAC\FLAC.EXE
Additional command line options : -6 -V -T "ARTIST=%artist%" -T "TITLE=%title%" -T "ALBUM=%albumtitle%" -T "DATE=%year%" -T "TRACKNUMBER=%tracknr%" -T "GENRE=%genre%" -T "COMMENT=%comment%" -T "BAND=%albuminterpret%" -T "COMPOSER=%composer%" %haslyrics%--tag-from-file=LYRICS="%lyricsfile%"%haslyrics% -T "DISCNUMBER=%cdnumber%" -T "TOTALDISCS=%totalcds%" -T "TOTALTRACKS=%numtracks%" %hascover%--picture="%coverfile%"%hascover% %source% -o %dest%
TOC of the extracted CD
Track | Start | Length | Start sector | End sector
---------------------------------------------------------
1 | 0:00.00 | 2:10.17 | 0 | 9766
2 | 2:10.17 | 4:23.00 | 9767 | 29491
3 | 6:33.17 | 3:39.04 | 29492 | 45920
4 | 10:12.21 | 3:17.39 | 45921 | 60734
5 | 13:29.60 | 5:07.54 | 60735 | 83813
6 | 18:37.39 | 1:48.47 | 83814 | 91960
7 | 20:26.11 | 2:58.07 | 91961 | 105317
8 | 23:24.18 | 3:38.58 | 105318 | 121725
9 | 27:03.01 | 3:24.50 | 121726 | 137075
10 | 30:27.51 | 4:49.62 | 137076 | 158812
11 | 35:17.38 | 5:46.40 | 158813 | 184802
12 | 41:04.03 | 3:38.73 | 184803 | 201225
13 | 44:43.01 | 4:10.21 | 201226 | 219996
Track 1
Filename D:\zzz\01 - Lachrymae - Prelude.wav
Pre-gap length 0:00:02.00
Peak level 63.4 %
Extraction speed 3.7 X
Track quality 100.0 %
Test CRC 9ED78649
Copy CRC 9ED78649
Accurately ripped (confidence 2) [4E1C060C] (AR v2)
Copy OK
Track 2
Filename D:\zzz\02 - Lachrymae - Movement #1.wav
Peak level 89.1 %
Extraction speed 4.5 X
Track quality 100.0 %
Test CRC 6ECA42B1
Copy CRC 6ECA42B1
Accurately ripped (confidence 2) [EAB61EA9] (AR v2)
Copy OK
Track 3
Filename D:\zzz\03 - Lachrymae - Movement #2.wav
Peak level 70.7 %
Extraction speed 4.9 X
Track quality 100.0 %
Test CRC 771D770F
Copy CRC 771D770F
Accurately ripped (confidence 2) [355BDDCB] (AR v2)
Copy OK
Track 4
Filename D:\zzz\04 - Lachrymae - Movement #4.wav
Peak level 70.7 %
Extraction speed 4.4 X
Track quality 99.9 %
Test CRC 7E2DE4AE
Copy CRC 7E2DE4AE
Accurately ripped (confidence 2) [0CEBC4C2] (AR v2)
Copy OK
Track 5
Filename D:\zzz\05 - Lachrymae - Movement #4 Variation.wav
Peak level 79.3 %
Extraction speed 5.2 X
Track quality 99.9 %
Test CRC 4048D281
Copy CRC 4048D281
Accurately ripped (confidence 2) [CDCBDDAC] (AR v2)
Copy OK
Track 6
Filename D:\zzz\06 - Lachrymae - Movement #7.wav
Peak level 83.5 %
Extraction speed 5.0 X
Track quality 100.0 %
Test CRC 4D82001C
Copy CRC 4D82001C
Accurately ripped (confidence 2) [D406F2FC] (AR v2)
Copy OK
Track 7
Filename D:\zzz\07 - Lachrymae - Movement #7 Variation.wav
Peak level 70.7 %
Extraction speed 5.8 X
Track quality 100.0 %
Test CRC A6FC85AD
Copy CRC A6FC85AD
Accurately ripped (confidence 2) [87D5D682] (AR v2)
Copy OK
Track 8
Filename D:\zzz\08 - Lachrymae - Movement #10.wav
Peak level 100.0 %
Extraction speed 5.5 X
Track quality 99.9 %
Test CRC 154B74CB
Copy CRC 154B74CB
Accurately ripped (confidence 2) [9BF3A46A] (AR v2)
Copy OK
Track 9
Filename D:\zzz\09 - Lachrymae - Movement #11.wav
Pre-gap length 0:00:04.00
Peak level 85.9 %
Extraction speed 6.3 X
Track quality 100.0 %
Test CRC 6D1C0780
Copy CRC 6D1C0780
Accurately ripped (confidence 2) [521F5070] (AR v2)
Copy OK
Track 10
Filename D:\zzz\10 - Arpeggio.wav
Pre-gap length 0:00:10.01
Peak level 70.7 %
Extraction speed 6.2 X
Track quality 99.9 %
Test CRC 416CC887
Copy CRC 416CC887
Accurately ripped (confidence 2) [5F0468FA] (AR v2)
Copy OK
Track 11
Filename D:\zzz\11 - The People Look Like Flowers At Last.wav
Pre-gap length 0:00:04.00
Peak level 100.0 %
Extraction speed 7.3 X
Track quality 100.0 %
Test CRC 32BC836A
Copy CRC 32BC836A
Accurately ripped (confidence 2) [75052804] (AR v2)
Copy OK
Track 12
Filename D:\zzz\12 - Let The Monkeys Dance.wav
Pre-gap length 0:00:04.00
Peak level 70.7 %
Extraction speed 7.2 X
Track quality 100.0 %
Test CRC 17383F76
Copy CRC 17383F76
Accurately ripped (confidence 2) [C6CA305D] (AR v2)
Copy OK
Track 13
Filename D:\zzz\13 - Variation On A Theme By Bill Monroe.wav
Peak level 89.1 %
Extraction speed 7.5 X
Track quality 100.0 %
Test CRC 7EB7E28F
Copy CRC 7EB7E28F
Accurately ripped (confidence 2) [713517CB] (AR v2)
Copy OK
All tracks accurately ripped
No errors occurred
End of status report
==== Log checksum C8C8902598E91757E4F88D6AB76DB8795DAB20842662D98836324992A88EFE5B ====
 
Содержание индексной карты (.CUE)
REM GENRE "Contemporary Jazz"
REM DATE 2009
REM DISCID A80B750D
REM COMMENT "ExactAudioCopy v1.0b3"
PERFORMER "The Tony Wilson Sextet"
TITLE "The People Look Like Flowers At Last"
FILE "01 - Lachrymae - Prelude.wav" WAVE
TRACK 01 AUDIO
TITLE "Lachrymae - Prelude"
PERFORMER "The Tony Wilson Sextet"
INDEX 01 00:00:00
FILE "02 - Lachrymae - Movement #1.wav" WAVE
TRACK 02 AUDIO
TITLE "Lachrymae - Movement #1"
PERFORMER "The Tony Wilson Sextet"
INDEX 01 00:00:00
FILE "03 - Lachrymae - Movement #2.wav" WAVE
TRACK 03 AUDIO
TITLE "Lachrymae - Movement #2"
PERFORMER "The Tony Wilson Sextet"
INDEX 01 00:00:00
FILE "04 - Lachrymae - Movement #4.wav" WAVE
TRACK 04 AUDIO
TITLE "Lachrymae - Movement #4"
PERFORMER "The Tony Wilson Sextet"
INDEX 01 00:00:00
FILE "05 - Lachrymae - Movement #4 Variation.wav" WAVE
TRACK 05 AUDIO
TITLE "Lachrymae - Movement #4 Variation"
PERFORMER "The Tony Wilson Sextet"
INDEX 01 00:00:00
FILE "06 - Lachrymae - Movement #7.wav" WAVE
TRACK 06 AUDIO
TITLE "Lachrymae - Movement #7"
PERFORMER "The Tony Wilson Sextet"
INDEX 01 00:00:00
FILE "07 - Lachrymae - Movement #7 Variation.wav" WAVE
TRACK 07 AUDIO
TITLE "Lachrymae - Movement #7 Variation"
PERFORMER "The Tony Wilson Sextet"
INDEX 01 00:00:00
FILE "08 - Lachrymae - Movement #10.wav" WAVE
TRACK 08 AUDIO
TITLE "Lachrymae - Movement #10"
PERFORMER "The Tony Wilson Sextet"
INDEX 01 00:00:00
TRACK 09 AUDIO
TITLE "Lachrymae - Movement #11"
PERFORMER "The Tony Wilson Sextet"
INDEX 00 03:34:58
FILE "09 - Lachrymae - Movement #11.wav" WAVE
INDEX 01 00:00:00
TRACK 10 AUDIO
TITLE "Arpeggio"
PERFORMER "The Tony Wilson Sextet"
INDEX 00 03:14:49
FILE "10 - Arpeggio.wav" WAVE
INDEX 01 00:00:00
TRACK 11 AUDIO
TITLE "The People Look Like Flowers At Last"
PERFORMER "The Tony Wilson Sextet"
INDEX 00 04:45:62
FILE "11 - The People Look Like Flowers At Last.wav" WAVE
INDEX 01 00:00:00
TRACK 12 AUDIO
TITLE "Let The Monkeys Dance"
PERFORMER "The Tony Wilson Sextet"
INDEX 00 05:42:40
FILE "12 - Let The Monkeys Dance.wav" WAVE
INDEX 01 00:00:00
FILE "13 - Variation On A Theme By Bill Monroe.wav" WAVE
TRACK 13 AUDIO
TITLE "Variation On A Theme By Bill Monroe"
PERFORMER "The Tony Wilson Sextet"
INDEX 01 00:00:00
 
Лог проверки качества
d:\>d:\aucdtect -d/-m0 d:\zzz\*.wav
auCDtect: CD records authenticity detector, version 0.8.2
Copyright (c) 2004 Oleg Berngardt. All rights reserved.
Copyright (c) 2004 Alexander Djourik. All rights reserved.
------------------------------------------------------------
Processing file: [01. Lachrymae - Prelude.wav]
------------------------------------------------------------
This track looks like MPEG with probability 89%
------------------------------------------------------------
Processing file: [02. Lachrymae - Movement #1.wav]
------------------------------------------------------------
Could not qualify the source of this track.
------------------------------------------------------------
Processing file: [03. Lachrymae - Movement #2.wav]
------------------------------------------------------------
This track looks like CDDA with probability 76%
------------------------------------------------------------
Processing file: [04. Lachrymae - Movement #4.wav]
------------------------------------------------------------
Could not qualify the source of this track.
------------------------------------------------------------
Processing file: [05. Lachrymae - Movement #4 Variation.wav]
------------------------------------------------------------
This track looks like CDDA with probability 43%
------------------------------------------------------------
Processing file: [06. Lachrymae - Movement #7.wav]
------------------------------------------------------------
This track looks like CDDA with probability 100%
------------------------------------------------------------
Processing file: [07. Lachrymae - Movement #7 Variation.wav]
------------------------------------------------------------
This track looks like CDDA with probability 43%
------------------------------------------------------------
Processing file: [08. Lachrymae - Movement #10.wav]
------------------------------------------------------------
This track looks like CDDA with probability 100%
------------------------------------------------------------
Processing file: [09. Lachrymae - Movement #11.wav]
------------------------------------------------------------
This track looks like CDDA with probability 100%
------------------------------------------------------------
Processing file: [10. Arpeggio.wav]
------------------------------------------------------------
This track looks like CDDA with probability 100%
------------------------------------------------------------
Processing file: [11. The People Look Like Flowers At Last.wav]
------------------------------------------------------------
This track looks like CDDA with probability 100%
------------------------------------------------------------
Processing file: [12. Let The Monkeys Dance.wav]
------------------------------------------------------------
Could not qualify the source of this track.
------------------------------------------------------------
Processing file: [13. Variation On A Theme By Bill Monroe.wav]
------------------------------------------------------------
This track looks like CDDA with probability 42%
------------------------------------------------------------
Final Conclusion:
------------------------------------------------------------
These tracks looks like CDDA with probability 100%
Доп. информация:
 
Album Info & AMG Review
(Benjamin Britten) - 1-4,6,8,9
(TW) - 5,7,10-13
Recorded October 2008 at The Factory Studios Vancouver, British Columbia, Canada
Recording engineer: Sheldon Zaharko
Mixing, editing & mastering by Dylan Van Der Schyff at Zio Uovo
Produced by Tony Wilson
Artwork by Andy Dixon
Special thanks to Peggy, Dylan, Kevin, Paul and Dave for the many years of dedication to this music. Charles Bukowski for the title, Melissa Lampman for support.
We acknowledge the support of the Canada Council for the Arts which last year invested $26.3 million in music throughout Canada.
Tony Wilson is a guitarist and composer based in Vancouver, British Columbia, and you probably don’t know of him. My suggestion: get up on this guy. His music blasts with invention and daring.
On the Vancouver scene, Wilson is everywhere all the time, playing in bebop groups, coloring and soloing in Peggy Lee’s incredible large band, and leading several of his own groups. His sextet collects several of the city’s best players (cellist Lee, drummer Dylan van der Schyff, sax player David Say, trumpeter Kevin Elaschuk, and bassist Paul Blaney) and then asks them to play with disciplined abandon.
The People Who Look Like Flowers At Last is as successful as it is ambitious. The first nine tracks are Wilson arrangements/compositions based on “Lachrymae”, a Benjamin Britton sonata for viola and piano. These tracks range broadly over the jazz and “new music” spectrum, from free improvisation to tightly limited sonic clarity. Additionally, Wilson has composed four originals that compliment the Britton material. Each track is a world unto itself.
The group is arrayed evenly between a chamber formalism and jazz experimentation. Though you might hear it as a string trio (guitar, cello, bass) balanced by a jazz group (drums, sax, trumpet), it would be equally valid to hear Lee’s cello as the adventurous edge of much of this group’s improvising. Her sound has an arid, dangerous quality on many tunes, with the two horns acting more lyrically. Wilson’s guitar is most often subtle or carefully hemmed in by its place in the arrangements. The Tony Wilson Sextet is not a particularly guitar-centric band.
“Movement 2” of “Lachyrmae”, for example, begins with a wide open duet between Lee and van der Schyff, which then subtly includes Wilson’s guitar as it finally settles on a tonal center. Lee’s cello is a rich, burgundy thing: raspy and raucous when it needs to be. So when Wilson joins in with a clean, distortion-less tone, his guitar seems almost a soft echo of the main voice. The two join forces on a written melody only in the last 30 seconds of the piece.
All the tracks are concise and to the point, measuring at no more than five minutes. Within this boundary, Wilson constructs widely varied miniatures. “Movement 4” starts with a jagged, back-and-forth unison for guitar and cello, and then it adds a leaping trumpet line. Elaschuk’s solo never gets comfortable, exactly, but it carries us to the end of the composition and into a “Movement 4, Variation” that is mostly the itchy, daring work by the trio.
Some of the work is easy on the ears, but that still doesn’t make it complacent. The brief “Movement 7” has a feeling of a march in waltz time, with Wilson playing the leaping intervals of a slow melody while the horn answer in two-note bursts. It feels like hip, funereal circus music. The subsequent “Movement 7, Variation” suddenly releases Say on a flowing soprano saxophone solo, cloaked a free-time accompaniment that smacks of Mingus more than Britton.
The Wilson originals are equally boundless. “The People Look Like Flowers At Last” (a title taken from poet Charles Bukowski) takes advantage of harmonies that might have appeared on a 1960s Blue Note album, moving with a lilting sway and a minor mode. Wilson is equally comfortable, however, with “Let the Monkeys Dance”, where his guitar vaults across traditional harmony while van der Schyff opens up free chasms of rhythm underneath him.
What Tony Wilson is constructing in the Pacific Northwest deserves to be seen and heard across the jazz scene—it’s as hip and smart as anything the cats are cooking up in Park Slope or the East Village. Fusing classical chamber music, free “new music”, and pungent post bop is simple enough to imagine, but Wilson pulls it off with a unique blend of discipline and whimsy. This work is particularly impressive coming from a guitarist. Wilson never relies on tricks of tone. He doesn’t play with a gimmicky sense of “rock”, but neither does he limit himself to a pure tone. Wilson seems, as a player and a composer, to be beyond category.
Now let’s get him beyond geography. His talent is worldwide in power.
 
Состав
Tony Wilson: guitar, harmonica
Peggy Lee: cello
Dave Say: tenor & soprano sax, flute
Kevin Elaschuk: trumpet & flugelhorn
Paul Blaney: bass
Dylan Van Der Schyff: drums
Any questions -> support@pro-jazz.com. По всем вопросам пишите -> support@pro-jazz.com
00:12
208
Нет комментариев. Ваш будет первым!