Вы используете незарегистрированную версию компонента "Вкладки"!

Поиск

(Avant-Garde Jazz, Free Improvisation) [CD] Marshall Allen, Hamid Drake, Kidd Jordan, William Parker, Alan Silva - The All-Star Game - 2003, FLAC (image+.cue), lossless

(Avant-Garde Jazz, Free Improvisation) [CD] Marshall Allen, Hamid Drake, Kidd Jordan, William Parker, Alan Silva - The All-Star Game - 2003, FLAC (image+.cue), lossless
Треклист:
Allen, Drake, Jordan, Parker, Silva / The All-Star Game
Жанр: Avant-Garde Jazz, Free Improvisation
Носитель: CD
Страна-производитель диска: US
Год издания: 2003
Издатель (лейбл): Eremite Records
Номер по каталогу: MTE044
Аудиокодек: FLAC (*.flac)
Тип рипа: image+.cue
Битрейт аудио: lossless
Продолжительность: 75:23
Источник (релизер): CD
Наличие сканов в содержимом раздачи: нет
Треклист:
1. I 9:54
2. II 12:06
3. III 13:34
4. IV 11:16
5. V 11:33
6. VI 16:58
 
Лог создания рипа
Exact Audio Copy V1.0 beta 2 from 29. April 2011
EAC extraction logfile from 14. March 2014, 13:50
Allen, Drake, Jordan, Parker, Silva / The All-Star Game
Used drive : Optiarc DVD RW AD-7170A Adapter: 0 ID: 0
Read mode : Secure
Utilize accurate stream : Yes
Defeat audio cache : Yes
Make use of C2 pointers : No
Read offset correction : 48
Overread into Lead-In and Lead-Out : No
Fill up missing offset samples with silence : Yes
Delete leading and trailing silent blocks : No
Null samples used in CRC calculations : Yes
Used interface : Native Win32 interface for Win NT & 2000
Used output format : User Defined Encoder
Selected bitrate : 320 kBit/s
Quality : High
Add ID3 tag : No
Command line compressor : C:\Program Files\Exact Audio Copy\Flac\flac.exe
Additional command line options : -V -8 -T "Date=%year%" -T "Genre=%genre%" %source%
TOC of the extracted CD
Track | Start | Length | Start sector | End sector
---------------------------------------------------------
1 | 0:00.00 | 9:54.23 | 0 | 44572
2 | 9:54.23 | 12:06.32 | 44573 | 99054
3 | 22:00.55 | 13:34.61 | 99055 | 160165
4 | 35:35.41 | 11:16.36 | 160166 | 210901
5 | 46:52.02 | 11:33.58 | 210902 | 262934
6 | 58:25.60 | 16:58.01 | 262935 | 339285
Range status and errors
Selected range
Filename K:\ЕАС\Allen, Drake, Jordan, Parker, Silva - The All-Star Game.wav
Peak level 94.2 %
Extraction speed 2.3 X
Range quality 99.9 %
Test CRC 07DF162F
Copy CRC 07DF162F
Copy OK
No errors occurred
AccurateRip summary
Track 1 accurately ripped (confidence 3) [1583677A] (AR v2)
Track 2 accurately ripped (confidence 3) [4F7330F2] (AR v2)
Track 3 accurately ripped (confidence 3) [E324ADBB] (AR v2)
Track 4 accurately ripped (confidence 3) [58EEEFF2] (AR v2)
Track 5 accurately ripped (confidence 3) [CDC35FE0] (AR v2)
Track 6 accurately ripped (confidence 3) [47B3974E] (AR v2)
All tracks accurately ripped
End of status report
==== Log checksum E67FFE09923E7B4963C8DC684FCB066E0B7FEBE7261B1F3F93BC219F6D96B78F ====
 
Содержание индексной карты (.CUE)
REM GENRE Jazz
REM DATE 2003
REM DISCID 4911AB06
REM COMMENT "ExactAudioCopy v1.0b2"
PERFORMER "Allen, Drake, Jordan, Parker, Silva"
TITLE "The All-Star Game"
FILE "Allen, Drake, Jordan, Parker, Silva - The All-Star Game.flac" WAVE
TRACK 01 AUDIO
TITLE "I"
PERFORMER "Allen, Drake, Jordan, Parker, Silva"
ISRC 000000000000
FLAGS DCP
INDEX 01 00:00:00
TRACK 02 AUDIO
TITLE "II"
PERFORMER "Allen, Drake, Jordan, Parker, Silva"
ISRC 000000000000
FLAGS DCP
INDEX 01 09:54:23
TRACK 03 AUDIO
TITLE "III"
PERFORMER "Allen, Drake, Jordan, Parker, Silva"
ISRC 000000000000
FLAGS DCP
INDEX 01 22:00:55
TRACK 04 AUDIO
TITLE "IV"
PERFORMER "Allen, Drake, Jordan, Parker, Silva"
ISRC 000000000000
FLAGS DCP
INDEX 01 35:35:41
TRACK 05 AUDIO
TITLE "V"
PERFORMER "Allen, Drake, Jordan, Parker, Silva"
ISRC 000000000000
FLAGS DCP
INDEX 01 46:52:02
TRACK 06 AUDIO
TITLE "VI"
PERFORMER "Allen, Drake, Jordan, Parker, Silva"
ISRC 000000000000
FLAGS DCP
INDEX 01 58:25:60
Доп. информация: Recorded on 1 Dec, 2000 at Ica Theater, Boston.
 
Об альбоме (сборнике)
The All-Star Game indeed. This 75-minute jam in six parts is the aural document of a gig held at the ICA in Boston in December of 2000. The lineup that champion saxophonist Marshall Allen chose is startling: Kidd Jordan on tenor, Hamid Drake on drums, and both William Parker and Alan Silva on basses! And before you surrender to the erroneous notion that this is just some blowing session where skronk is the name of the game front and back, get real. These men are all improvisers of a different sort. All of them have played in very disciplined units and know how to make the most of dynamic, harmonic interplay, tonal dexterity, and (of course) group interplay as well as solo improvising. The exchanges between Allen and Jordan themselves are remarkable for the way in which contrapuntal allowances are turned around in a series of cadences dictated by the bassists and then articulated through first subtle and then bleating shifts of tone and color. The articulation of breath, elongation of line, and opposing notions of legato phrasing as it differs from alto to tenor player is remarkable. On the third and fourth sections, the engagement of both bassists with Drake as the sax players lean in to play tight and close to the rhythmic sprawl is nothing short of astonishing. That this intensity of focus and creativity is displayed for this length without a single straw note or easily copped riff or trope is remarkable in and of itself. But the real secret of this gig's success was in its reliance on keeping the rhythm section the center of focus and attention: this music swings -- albeit in an entirely new way -- as hard as it blows.
 
Состав
Alto Saxophone, Composed By – Marshall Allen
Bass, Composed By – Alan Silva, William Parker
Drums, Composed By – Hamid Drake
Tenor Saxophone, Composed By – Kidd Jordan
По всем вопросам пишите личное сообщение пользователю M0p94ok.
00:10
332
Нет комментариев. Ваш будет первым!